  0
SECTION
  2
HEADER
  9
$ACADVER
  1
AC1014
  9
$ACADMAINTVER
 70
     9
  9
$DWGCODEPAGE
  3
ANSI_932
  9
$INSBASE
 10
0.0
 20
0.0
 30
0.0
  9
$EXTMIN
 10
10.0
 20
5.355246476298406
 30
0.0
  9
$EXTMAX
 10
287.0
 20
195.0
 30
0.0
  9
$LIMMIN
 10
0.0
 20
0.0
  9
$LIMMAX
 10
297.0
 20
210.0
  9
$ORTHOMODE
 70
     0
  9
$REGENMODE
 70
     1
  9
$FILLMODE
 70
     1
  9
$QTEXTMODE
 70
     0
  9
$MIRRTEXT
 70
     1
  9
$DRAGMODE
 70
     2
  9
$LTSCALE
 40
1.0
  9
$OSMODE
 70
    37
  9
$ATTMODE
 70
     1
  9
$TEXTSIZE
 40
2.5
  9
$TRACEWID
 40
1.0
  9
$TEXTSTYLE
  7
STANDARD
  9
$CLAYER
  8
外観図
  9
$CELTYPE
  6
BYLAYER
  9
$CECOLOR
 62
   256
  9
$CELTSCALE
 40
1.0
  9
$DELOBJ
 70
     1
  9
$DISPSILH
 70
     0
  9
$DIMSCALE
 40
1.0
  9
$DIMASZ
 40
2.5
  9
$DIMEXO
 40
0.625
  9
$DIMDLI
 40
3.75
  9
$DIMRND
 40
0.0
  9
$DIMDLE
 40
0.0
  9
$DIMEXE
 40
1.25
  9
$DIMTP
 40
0.0
  9
$DIMTM
 40
0.0
  9
$DIMTXT
 40
2.5
  9
$DIMCEN
 40
2.5
  9
$DIMTSZ
 40
0.0
  9
$DIMTOL
 70
     0
  9
$DIMLIM
 70
     0
  9
$DIMTIH
 70
     0
  9
$DIMTOH
 70
     0
  9
$DIMSE1
 70
     0
  9
$DIMSE2
 70
     0
  9
$DIMTAD
 70
     1
  9
$DIMZIN
 70
     8
  9
$DIMBLK
  1

  9
$DIMASO
 70
     1
  9
$DIMSHO
 70
     1
  9
$DIMPOST
  1

  9
$DIMAPOST
  1

  9
$DIMALT
 70
     0
  9
$DIMALTD
 70
     3
  9
$DIMALTF
 40
0.03937007874016
  9
$DIMLFAC
 40
1.0
  9
$DIMTOFL
 70
     1
  9
$DIMTVP
 40
0.0
  9
$DIMTIX
 70
     0
  9
$DIMSOXD
 70
     0
  9
$DIMSAH
 70
     0
  9
$DIMBLK1
  1

  9
$DIMBLK2
  1

  9
$DIMSTYLE
  2
ISO-25
  9
$DIMCLRD
 70
     0
  9
$DIMCLRE
 70
     0
  9
$DIMCLRT
 70
     0
  9
$DIMTFAC
 40
1.0
  9
$DIMGAP
 40
0.625
  9
$DIMJUST
 70
     0
  9
$DIMSD1
 70
     0
  9
$DIMSD2
 70
     0
  9
$DIMTOLJ
 70
     0
  9
$DIMTZIN
 70
     8
  9
$DIMALTZ
 70
     0
  9
$DIMALTTZ
 70
     0
  9
$DIMFIT
 70
     3
  9
$DIMUPT
 70
     0
  9
$DIMUNIT
 70
     2
  9
$DIMDEC
 70
     2
  9
$DIMTDEC
 70
     2
  9
$DIMALTU
 70
     2
  9
$DIMALTTD
 70
     3
  9
$DIMTXSTY
  7
STANDARD
  9
$DIMAUNIT
 70
     0
  9
$LUNITS
 70
     2
  9
$LUPREC
 70
     4
  9
$SKETCHINC
 40
1.0
  9
$FILLETRAD
 40
10.0
  9
$AUNITS
 70
     0
  9
$AUPREC
 70
     0
  9
$MENU
  1
.
  9
$ELEVATION
 40
0.0
  9
$PELEVATION
 40
0.0
  9
$THICKNESS
 40
0.0
  9
$LIMCHECK
 70
     0
  9
$CHAMFERA
 40
0.0
  9
$CHAMFERB
 40
0.0
  9
$CHAMFERC
 40
0.0
  9
$CHAMFERD
 40
0.0
  9
$SKPOLY
 70
     0
  9
$TDCREATE
 40
2458528.591675405
  9
$TDUPDATE
 40
2458528.591675764
  9
$TDINDWG
 40
0.0000000116
  9
$TDUSRTIMER
 40
0.0000000116
  9
$USRTIMER
 70
     1
  9
$ANGBASE
 50
0.0
  9
$ANGDIR
 70
     0
  9
$PDMODE
 70
     0
  9
$PDSIZE
 40
0.0
  9
$PLINEWID
 40
0.0
  9
$COORDS
 70
     1
  9
$SPLFRAME
 70
     0
  9
$SPLINETYPE
 70
     6
  9
$SPLINESEGS
 70
     8
  9
$ATTDIA
 70
     0
  9
$ATTREQ
 70
     1
  9
$HANDLING
 70
     1
  9
$HANDSEED
  5
3E6
  9
$SURFTAB1
 70
     6
  9
$SURFTAB2
 70
     6
  9
$SURFTYPE
 70
     6
  9
$SURFU
 70
     6
  9
$SURFV
 70
     6
  9
$UCSNAME
  2

  9
$UCSORG
 10
0.0
 20
0.0
 30
0.0
  9
$UCSXDIR
 10
1.0
 20
0.0
 30
0.0
  9
$UCSYDIR
 10
0.0
 20
1.0
 30
0.0
  9
$PUCSNAME
  2

  9
$PUCSORG
 10
0.0
 20
0.0
 30
0.0
  9
$PUCSXDIR
 10
1.0
 20
0.0
 30
0.0
  9
$PUCSYDIR
 10
0.0
 20
1.0
 30
0.0
  9
$USERI1
 70
     0
  9
$USERI2
 70
     0
  9
$USERI3
 70
     0
  9
$USERI4
 70
     0
  9
$USERI5
 70
     0
  9
$USERR1
 40
0.0
  9
$USERR2
 40
0.0
  9
$USERR3
 40
0.0
  9
$USERR4
 40
0.0
  9
$USERR5
 40
0.0
  9
$WORLDVIEW
 70
     1
  9
$SHADEDGE
 70
     3
  9
$SHADEDIF
 70
    70
  9
$TILEMODE
 70
     1
  9
$MAXACTVP
 70
    64
  9
$PINSBASE
 10
0.0
 20
0.0
 30
0.0
  9
$PLIMCHECK
 70
     0
  9
$PEXTMIN
 10
1.000000000000000E+20
 20
1.000000000000000E+20
 30
1.000000000000000E+20
  9
$PEXTMAX
 10
-1.000000000000000E+20
 20
-1.000000000000000E+20
 30
-1.000000000000000E+20
  9
$PLIMMIN
 10
0.0
 20
0.0
  9
$PLIMMAX
 10
420.0
 20
297.0
  9
$UNITMODE
 70
     0
  9
$VISRETAIN
 70
     1
  9
$PLINEGEN
 70
     0
  9
$PSLTSCALE
 70
     1
  9
$TREEDEPTH
 70
  3020
  9
$PICKSTYLE
 70
     1
  9
$CMLSTYLE
  2
STANDARD
  9
$CMLJUST
 70
     0
  9
$CMLSCALE
 40
20.0
  9
$PROXYGRAPHICS
 70
     1
  9
$MEASUREMENT
 70
     1
  0
ENDSEC
  0
SECTION
  2
CLASSES
  0
CLASS
  1
ACDBDICTIONARYWDFLT
  2
AcDbDictionaryWithDefault
  3
ObjectDBX Classes
 90
        0
280
     0
281
     0
  0
CLASS
  1
VISUALSTYLE
  2
AcDbVisualStyle
  3
ObjectDBX Classes
 90
     4095
280
     0
281
     0
  0
CLASS
  1
MATERIAL
  2
AcDbMaterial
  3
ObjectDBX Classes
 90
     1153
280
     0
281
     0
  0
CLASS
  1
SCALE
  2
AcDbScale
  3
ObjectDBX Classes
 90
     1153
280
     0
281
     0
  0
CLASS
  1
SUN
  2
AcDbSun
  3
SCENEOE
 90
     1153
280
     0
281
     0
  0
CLASS
  1
DICTIONARYVAR
  2
AcDbDictionaryVar
  3
ObjectDBX Classes
 90
        0
280
     0
281
     0
  0
CLASS
  1
XRECORD
  2
AcDbXrecord
  3
ObjectDBX Classes
 90
        0
280
     0
281
     0
  0
CLASS
  1
LWPOLYLINE
  2
AcDbPolyline
  3
ObjectDBX Classes
 90
        0
280
     0
281
     1
  0
CLASS
  1
HATCH
  2
AcDbHatch
  3
ObjectDBX Classes
 90
        0
280
     0
281
     1
  0
CLASS
  1
ACDBPLACEHOLDER
  2
AcDbPlaceHolder
  3
ObjectDBX Classes
 90
        0
280
     0
281
     0
  0
CLASS
  1
LAYOUT
  2
AcDbLayout
  3
ObjectDBX Classes
 90
        0
280
     0
281
     0
  0
ENDSEC
  0
SECTION
  2
TABLES
  0
TABLE
  2
VPORT
  5
8
330
0
100
AcDbSymbolTable
 70
     1
  0
VPORT
  5
29
330
8
100
AcDbSymbolTableRecord
100
AcDbViewportTableRecord
  2
*ACTIVE
 70
     0
 10
0.0
 20
0.0
 11
1.0
 21
1.0
 12
742.5
 22
500.8881161907461
 13
0.0
 23
0.0
 14
10.0
 24
10.0
 15
10.0
 25
10.0
 16
0.0
 26
0.0
 36
1.0
 17
0.0
 27
0.0
 37
0.0
 40
948.223767618508
 41
1.460625695428905
 42
50.0
 43
0.0
 44
0.0
 50
0.0
 51
0.0
 71
     0
 72
  1000
 73
     1
 74
     3
 75
     0
 76
     0
 77
     0
 78
     0
  0
ENDTAB
  0
TABLE
  2
LTYPE
  5
5
330
0
100
AcDbSymbolTable
 70
    12
  0
LTYPE
  5
14
330
5
100
AcDbSymbolTableRecord
100
AcDbLinetypeTableRecord
  2
BYBLOCK
 70
     0
  3

 72
    65
 73
     0
 40
0.0
  0
LTYPE
  5
15
330
5
100
AcDbSymbolTableRecord
100
AcDbLinetypeTableRecord
  2
BYLAYER
 70
     0
  3

 72
    65
 73
     0
 40
0.0
  0
LTYPE
  5
16
330
5
100
AcDbSymbolTableRecord
100
AcDbLinetypeTableRecord
  2
CONTINUOUS
 70
     0
  3
Solid line
 72
    65
 73
     0
 40
0.0
  0
LTYPE
  5
6A
330
5
100
AcDbSymbolTableRecord
100
AcDbLinetypeTableRecord
  2
EXLTYPE1
 70
     0
  3
破線
 72
    65
 73
     2
 40
4.0
 49
3.0
 74
     0
 49
-1.0
 74
     0
  0
LTYPE
  5
6B
330
5
100
AcDbSymbolTableRecord
100
AcDbLinetypeTableRecord
  2
EXLTYPE2
 70
     0
  3
点線
 72
    65
 73
     2
 40
2.0
 49
1.0
 74
     0
 49
-1.0
 74
     0
  0
LTYPE
  5
6C
330
5
100
AcDbSymbolTableRecord
100
AcDbLinetypeTableRecord
  2
EXLTYPE3
 70
     0
  3
一点鎖線
 72
    65
 73
     4
 40
33.0
 49
30.0
 74
     0
 49
-1.0
 74
     0
 49
1.0
 74
     0
 49
-1.0
 74
     0
  0
LTYPE
  5
6D
330
5
100
AcDbSymbolTableRecord
100
AcDbLinetypeTableRecord
  2
EXLTYPE4
 70
     0
  3
二点鎖線
 72
    65
 73
     6
 40
35.0
 49
30.0
 74
     0
 49
-1.0
 74
     0
 49
1.0
 74
     0
 49
-1.0
 74
     0
 49
1.0
 74
     0
 49
-1.0
 74
     0
  0
LTYPE
  5
6E
330
5
100
AcDbSymbolTableRecord
100
AcDbLinetypeTableRecord
  2
EXLTYPE5
 70
     0
  3
三点鎖線
 72
    65
 73
     8
 40
37.0
 49
30.0
 74
     0
 49
-1.0
 74
     0
 49
1.0
 74
     0
 49
-1.0
 74
     0
 49
1.0
 74
     0
 49
-1.0
 74
     0
 49
1.0
 74
     0
 49
-1.0
 74
     0
  0
LTYPE
  5
6F
330
5
100
AcDbSymbolTableRecord
100
AcDbLinetypeTableRecord
  2
EXLTYPE6
 70
     0
  3
四点鎖線
 72
    65
 73
    10
 40
39.0
 49
30.0
 74
     0
 49
-1.0
 74
     0
 49
1.0
 74
     0
 49
-1.0
 74
     0
 49
1.0
 74
     0
 49
-1.0
 74
     0
 49
1.0
 74
     0
 49
-1.0
 74
     0
 49
1.0
 74
     0
 49
-1.0
 74
     0
  0
LTYPE
  5
70
330
5
100
AcDbSymbolTableRecord
100
AcDbLinetypeTableRecord
  2
EXLTYPE7
 70
     0
  3
二点鎖線7
 72
    65
 73
     6
 40
11.816875
 49
5.9084375
 74
     0
 49
-1.1816875
 74
     0
 49
1.1816875
 74
     0
 49
-1.1816875
 74
     0
 49
1.1816875
 74
     0
 49
-1.1816875
 74
     0
  0
LTYPE
  5
71
330
5
100
AcDbSymbolTableRecord
100
AcDbLinetypeTableRecord
  2
EXLTYPE8
 70
     0
  3
破線2
 72
    65
 73
     2
 40
1.3981199625
 49
0.9320799750000002
 74
     0
 49
-0.4660399875000001
 74
     0
  0
LTYPE
  5
72
330
5
100
AcDbSymbolTableRecord
100
AcDbLinetypeTableRecord
  2
EXLTYPE9
 70
     0
  3
一点鎖線2
 72
    65
 73
     4
 40
5.317957575
 49
3.54530505
 74
     0
 49
-0.590884175
 74
     0
 49
0.590884175
 74
     0
 49
-0.590884175
 74
     0
  0
LTYPE
  5
73
330
5
100
AcDbSymbolTableRecord
100
AcDbLinetypeTableRecord
  2
EXLTYPE10
 70
     0
  3
一点鎖線3
 72
    65
 73
     4
 40
10.0
 49
7.0
 74
     0
 49
-1.0
 74
     0
 49
1.0
 74
     0
 49
-1.0
 74
     0
  0
LTYPE
  5
74
330
5
100
AcDbSymbolTableRecord
100
AcDbLinetypeTableRecord
  2
EXLTYPE11
 70
     0
  3
破線4
 72
    65
 73
     2
 40
2.0
 49
1.0
 74
     0
 49
-1.0
 74
     0
  0
ENDTAB
  0
TABLE
  2
LAYER
  5
2
330
0
100
AcDbSymbolTable
 70
     5
  0
LAYER
  5
10
330
2
100
AcDbSymbolTableRecord
100
AcDbLayerTableRecord
  2
0
 70
     0
 62
     7
  6
CONTINUOUS
  0
LAYER
  5
77
330
2
100
AcDbSymbolTableRecord
100
AcDbLayerTableRecord
  2
注釈
 70
     0
 62
     7
  6
CONTINUOUS
  0
LAYER
  5
78
330
2
100
AcDbSymbolTableRecord
100
AcDbLayerTableRecord
  2
仕様
 70
     4
 62
     7
  6
CONTINUOUS
  0
LAYER
  5
79
330
2
100
AcDbSymbolTableRecord
100
AcDbLayerTableRecord
  2
外観図
 70
     0
 62
     7
  6
CONTINUOUS
  0
LAYER
  5
1AB
330
2
100
AcDbSymbolTableRecord
100
AcDbLayerTableRecord
  2
DEFPOINTS
 70
     0
 62
     7
  6
CONTINUOUS
  0
ENDTAB
  0
TABLE
  2
STYLE
  5
3
330
0
100
AcDbSymbolTable
 70
     6
  0
STYLE
  5
11
330
3
100
AcDbSymbolTableRecord
100
AcDbTextStyleTableRecord
  2
STANDARD
 70
     0
 40
0.0
 41
1.0
 50
0.0
 71
     0
 42
2.5
  3
monotxt
  4
extfont
  0
STYLE
  5
75
330
3
100
AcDbSymbolTableRecord
100
AcDbTextStyleTableRecord
  2
EXCADSTD
 70
     0
 40
0.0
 41
1.0
 50
0.0
 71
     0
 42
2.5
  3
monotxt
  4
extfont
  0
STYLE
  5
76
330
3
100
AcDbSymbolTableRecord
100
AcDbTextStyleTableRecord
  2
EXCADVERT
 70
     4
 40
0.0
 41
1.0
 50
0.0
 71
     0
 42
2.5
  3
monotxt
  4
extfont
  0
STYLE
  5
D6
330
3
100
AcDbSymbolTableRecord
100
AcDbTextStyleTableRecord
  2
EXCADTTF1
 70
     0
 40
0.0
 41
1.0
 50
0.0
 71
     0
 42
2.5
  3
msgothic.ttc
  4

1001
ACAD
1000
MS Gothic
1071
    32817
  0
STYLE
  5
182
330
3
100
AcDbSymbolTableRecord
100
AcDbTextStyleTableRecord
  2
EXCADTTF2
 70
     0
 40
0.0
 41
1.0
 50
0.0
 71
     0
 42
2.5
  3
HGRSMP.TTF
  4

1001
ACAD
1000
HGMaruGothicMPRO
1071
    32818
  0
STYLE
  5
1A9
330
3
100
AcDbSymbolTableRecord
100
AcDbTextStyleTableRecord
  2
EXCADDIM1
 70
     0
 40
0.0
 41
0.84
 50
0.0
 71
     0
 42
2.5
  3
monotxt
  4
extfont
  0
ENDTAB
  0
TABLE
  2
VIEW
  5
6
330
0
100
AcDbSymbolTable
 70
     0
  0
ENDTAB
  0
TABLE
  2
UCS
  5
7
330
0
100
AcDbSymbolTable
 70
     0
  0
ENDTAB
  0
TABLE
  2
APPID
  5
9
330
0
100
AcDbSymbolTable
 70
     1
  0
APPID
  5
12
330
9
100
AcDbSymbolTableRecord
100
AcDbRegAppTableRecord
  2
ACAD
 70
     0
  0
ENDTAB
  0
TABLE
  2
DIMSTYLE
  5
A
330
0
100
AcDbSymbolTable
 70
     1
  0
DIMSTYLE
105
27
102
{ACAD_REACTORS
330
1AA
330
1B8
330
1C5
330
1D2
102
}
330
A
100
AcDbSymbolTableRecord
100
AcDbDimStyleTableRecord
  2
ISO-25
 70
     0
  3

  4

  5

  6

  7

 40
1.0
 41
2.5
 42
0.625
 43
3.75
 44
1.25
 45
0.0
 46
0.0
 47
0.0
 48
0.0
140
2.5
141
2.5
142
0.0
143
0.03937007874016
144
1.0
145
0.0
146
1.0
147
0.625
 71
     0
 72
     0
 73
     0
 74
     0
 75
     0
 76
     0
 77
     1
 78
     8
170
     0
171
     3
172
     1
173
     0
174
     0
175
     0
176
     0
177
     0
178
     0
270
     2
271
     2
272
     2
273
     2
274
     3
340
11
275
     0
280
     0
281
     0
282
     0
283
     0
284
     8
285
     0
286
     0
287
     5
288
     0
  0
ENDTAB
  0
TABLE
  2
BLOCK_RECORD
  5
1
330
0
100
AcDbSymbolTable
 70
    19
  0
BLOCK_RECORD
  5
1F
330
1
100
AcDbSymbolTableRecord
100
AcDbBlockTableRecord
  2
*MODEL_SPACE
  0
BLOCK_RECORD
  5
1B
330
1
100
AcDbSymbolTableRecord
100
AcDbBlockTableRecord
  2
*PAPER_SPACE
  0
BLOCK_RECORD
  5
7A
330
1
100
AcDbSymbolTableRecord
100
AcDbBlockTableRecord
  2
EX_NORM
  0
BLOCK_RECORD
  5
7D
330
1
100
AcDbSymbolTableRecord
100
AcDbBlockTableRecord
  2
EX_BNORM
  0
BLOCK_RECORD
  5
80
330
1
100
AcDbSymbolTableRecord
100
AcDbBlockTableRecord
  2
EX_BCIR
  0
BLOCK_RECORD
  5
83
330
1
100
AcDbSymbolTableRecord
100
AcDbBlockTableRecord
  2
EX_RCIVIL
  0
BLOCK_RECORD
  5
86
330
1
100
AcDbSymbolTableRecord
100
AcDbBlockTableRecord
  2
EX_SLANT
  0
BLOCK_RECORD
  5
89
330
1
100
AcDbSymbolTableRecord
100
AcDbBlockTableRecord
  2
EX_NONE
  0
BLOCK_RECORD
  5
8C
330
1
100
AcDbSymbolTableRecord
100
AcDbBlockTableRecord
  2
EX_CIVIL
  0
BLOCK_RECORD
  5
8F
330
1
100
AcDbSymbolTableRecord
100
AcDbBlockTableRecord
  2
EX_WCIR
  0
BLOCK_RECORD
  5
92
330
1
100
AcDbSymbolTableRecord
100
AcDbBlockTableRecord
  2
EX_WCIR2
  0
BLOCK_RECORD
  5
95
330
1
100
AcDbSymbolTableRecord
100
AcDbBlockTableRecord
  2
EX_WNORM
  0
BLOCK_RECORD
  5
98
330
1
100
AcDbSymbolTableRecord
100
AcDbBlockTableRecord
  2
EX_NNORM
  0
BLOCK_RECORD
  5
9B
330
1
100
AcDbSymbolTableRecord
100
AcDbBlockTableRecord
  2
EX_BBOX
  0
BLOCK_RECORD
  5
9E
330
1
100
AcDbSymbolTableRecord
100
AcDbBlockTableRecord
  2
EX_WBOX
  0
BLOCK_RECORD
  5
A1
330
1
100
AcDbSymbolTableRecord
100
AcDbBlockTableRecord
  2
EX_INTEGRAL
  0
BLOCK_RECORD
  5
1AC
330
1
100
AcDbSymbolTableRecord
100
AcDbBlockTableRecord
  2
*D15
  0
BLOCK_RECORD
  5
1B9
330
1
100
AcDbSymbolTableRecord
100
AcDbBlockTableRecord
  2
*D16
  0
BLOCK_RECORD
  5
1C6
330
1
100
AcDbSymbolTableRecord
100
AcDbBlockTableRecord
  2
*D17
  0
BLOCK_RECORD
  5
1D3
330
1
100
AcDbSymbolTableRecord
100
AcDbBlockTableRecord
  2
*D18
  0
ENDTAB
  0
ENDSEC
  0
SECTION
  2
BLOCKS
  0
BLOCK
  5
20
330
1F
100
AcDbEntity
  8
0
100
AcDbBlockBegin
  2
*MODEL_SPACE
 70
     0
 10
0.0
 20
0.0
 30
0.0
  3
*MODEL_SPACE
  1

  0
ENDBLK
  5
21
330
1F
100
AcDbEntity
  8
0
100
AcDbBlockEnd
  0
BLOCK
  5
1C
330
1B
100
AcDbEntity
 67
     1
  8
0
100
AcDbBlockBegin
  2
*PAPER_SPACE
 70
     0
 10
0.0
 20
0.0
 30
0.0
  3
*PAPER_SPACE
  1

  0
ENDBLK
  5
1D
330
1B
100
AcDbEntity
 67
     1
  8
0
100
AcDbBlockEnd
  0
BLOCK
  5
7B
330
7A
100
AcDbEntity
  8
0
100
AcDbBlockBegin
  2
EX_NORM
 70
     0
 10
0.0
 20
0.0
 30
0.0
  3
EX_NORM
  1
EX_NORM
  0
LINE
  5
A4
330
7A
100
AcDbEntity
  8
0
  6
CONTINUOUS
 62
     0
100
AcDbLine
 10
0.0
 20
0.0
 30
0.0
 11
-1.0
 21
0.0
 31
0.0
  0
LINE
  5
A5
330
7A
100
AcDbEntity
  8
0
  6
CONTINUOUS
 62
     0
100
AcDbLine
 10
0.0
 20
0.0
 30
0.0
 11
-1.0
 21
0.166666667
 31
0.0
  0
LINE
  5
A6
330
7A
100
AcDbEntity
  8
0
  6
CONTINUOUS
 62
     0
100
AcDbLine
 10
0.0
 20
0.0
 30
0.0
 11
-1.0
 21
-0.166666667
 31
0.0
  0
ENDBLK
  5
7C
330
7A
100
AcDbEntity
  8
0
100
AcDbBlockEnd
  0
BLOCK
  5
7E
330
7D
100
AcDbEntity
  8
0
100
AcDbBlockBegin
  2
EX_BNORM
 70
     0
 10
0.0
 20
0.0
 30
0.0
  3
EX_BNORM
  1
EX_BNORM
  0
LINE
  5
A7
330
7D
100
AcDbEntity
  8
0
  6
CONTINUOUS
 62
     0
100
AcDbLine
 10
0.0
 20
0.0
 30
0.0
 11
-1.0
 21
0.0
 31
0.0
  0
LINE
  5
A8
330
7D
100
AcDbEntity
  8
0
  6
CONTINUOUS
 62
     0
100
AcDbLine
 10
0.0
 20
0.0
 30
0.0
 11
-1.0
 21
0.166666667
 31
0.0
  0
LINE
  5
A9
330
7D
100
AcDbEntity
  8
0
  6
CONTINUOUS
 62
     0
100
AcDbLine
 10
0.0
 20
0.0
 30
0.0
 11
-1.0
 21
-0.166666667
 31
0.0
  0
LINE
  5
AA
330
7D
100
AcDbEntity
  8
0
  6
CONTINUOUS
 62
     0
100
AcDbLine
 10
0.0
 20
0.0
 30
0.0
 11
-1.0
 21
0.083333333
 31
0.0
  0
LINE
  5
AB
330
7D
100
AcDbEntity
  8
0
  6
CONTINUOUS
 62
     0
100
AcDbLine
 10
0.0
 20
0.0
 30
0.0
 11
-1.0
 21
-0.083333333
 31
0.0
  0
LINE
  5
AC
330
7D
100
AcDbEntity
  8
0
  6
CONTINUOUS
 62
     0
100
AcDbLine
 10
-1.0
 20
0.166666667
 30
0.0
 11
-1.0
 21
-0.166666667
 31
0.0
  0
ENDBLK
  5
7F
330
7D
100
AcDbEntity
  8
0
100
AcDbBlockEnd
  0
BLOCK
  5
81
330
80
100
AcDbEntity
  8
0
100
AcDbBlockBegin
  2
EX_BCIR
 70
     0
 10
0.0
 20
0.0
 30
0.0
  3
EX_BCIR
  1
EX_BCIR
  0
LINE
  5
AD
330
80
100
AcDbEntity
  8
0
  6
CONTINUOUS
 62
     0
100
AcDbLine
 10
0.0
 20
0.0
 30
0.0
 11
-1.0
 21
0.0
 31
0.0
  0
CIRCLE
  5
AE
330
80
100
AcDbEntity
  8
0
  6
CONTINUOUS
 62
     0
100
AcDbCircle
 10
0.0
 20
0.0
 30
0.0
 40
0.5
  0
CIRCLE
  5
AF
330
80
100
AcDbEntity
  8
0
  6
CONTINUOUS
 62
     0
100
AcDbCircle
 10
0.0
 20
0.0
 30
0.0
 40
0.25
  0
ENDBLK
  5
82
330
80
100
AcDbEntity
  8
0
100
AcDbBlockEnd
  0
BLOCK
  5
84
330
83
100
AcDbEntity
  8
0
100
AcDbBlockBegin
  2
EX_RCIVIL
 70
     0
 10
0.0
 20
0.0
 30
0.0
  3
EX_RCIVIL
  1
EX_RCIVIL
  0
LINE
  5
B0
330
83
100
AcDbEntity
  8
0
  6
CONTINUOUS
 62
     0
100
AcDbLine
 10
0.0
 20
0.0
 30
0.0
 11
-1.0
 21
0.0
 31
0.0
  0
LINE
  5
B1
330
83
100
AcDbEntity
  8
0
  6
CONTINUOUS
 62
     0
100
AcDbLine
 10
-1.0
 20
-0.25
 30
0.0
 11
0.0
 21
-0.25
 31
0.0
  0
LINE
  5
B2
330
83
100
AcDbEntity
  8
0
  6
CONTINUOUS
 62
     0
100
AcDbLine
 10
-1.0
 20
-0.125
 30
0.0
 11
0.0
 21
-0.125
 31
0.0
  0
ENDBLK
  5
85
330
83
100
AcDbEntity
  8
0
100
AcDbBlockEnd
  0
BLOCK
  5
87
330
86
100
AcDbEntity
  8
0
100
AcDbBlockBegin
  2
EX_SLANT
 70
     0
 10
0.0
 20
0.0
 30
0.0
  3
EX_SLANT
  1
EX_SLANT
  0
LINE
  5
B3
330
86
100
AcDbEntity
  8
0
  6
CONTINUOUS
 62
     0
100
AcDbLine
 10
0.0
 20
0.0
 30
0.0
 11
-1.0
 21
0.0
 31
0.0
  0
LINE
  5
B4
330
86
100
AcDbEntity
  8
0
  6
CONTINUOUS
 62
     0
100
AcDbLine
 10
0.707106781
 20
0.707106781
 30
0.0
 11
-0.707106781
 21
-0.707106781
 31
0.0
  0
ENDBLK
  5
88
330
86
100
AcDbEntity
  8
0
100
AcDbBlockEnd
  0
BLOCK
  5
8A
330
89
100
AcDbEntity
  8
0
100
AcDbBlockBegin
  2
EX_NONE
 70
     0
 10
0.0
 20
0.0
 30
0.0
  3
EX_NONE
  1
EX_NONE
  0
LINE
  5
B5
330
89
100
AcDbEntity
  8
0
  6
CONTINUOUS
 62
     0
100
AcDbLine
 10
0.0
 20
0.0
 30
0.0
 11
-1.0
 21
0.0
 31
0.0
  0
ENDBLK
  5
8B
330
89
100
AcDbEntity
  8
0
100
AcDbBlockEnd
  0
BLOCK
  5
8D
330
8C
100
AcDbEntity
  8
0
100
AcDbBlockBegin
  2
EX_CIVIL
 70
     0
 10
0.0
 20
0.0
 30
0.0
  3
EX_CIVIL
  1
EX_CIVIL
  0
LINE
  5
B6
330
8C
100
AcDbEntity
  8
0
  6
CONTINUOUS
 62
     0
100
AcDbLine
 10
0.0
 20
0.0
 30
0.0
 11
-1.0
 21
0.0
 31
0.0
  0
LINE
  5
B7
330
8C
100
AcDbEntity
  8
0
  6
CONTINUOUS
 62
     0
100
AcDbLine
 10
-1.0
 20
0.25
 30
0.0
 11
0.0
 21
0.25
 31
0.0
  0
LINE
  5
B8
330
8C
100
AcDbEntity
  8
0
  6
CONTINUOUS
 62
     0
100
AcDbLine
 10
-1.0
 20
0.125
 30
0.0
 11
0.0
 21
0.125
 31
0.0
  0
ENDBLK
  5
8E
330
8C
100
AcDbEntity
  8
0
100
AcDbBlockEnd
  0
BLOCK
  5
90
330
8F
100
AcDbEntity
  8
0
100
AcDbBlockBegin
  2
EX_WCIR
 70
     0
 10
0.0
 20
0.0
 30
0.0
  3
EX_WCIR
  1
EX_WCIR
  0
LINE
  5
B9
330
8F
100
AcDbEntity
  8
0
  6
CONTINUOUS
 62
     0
100
AcDbLine
 10
0.0
 20
0.0
 30
0.0
 11
-1.0
 21
0.0
 31
0.0
  0
CIRCLE
  5
BA
330
8F
100
AcDbEntity
  8
0
  6
CONTINUOUS
 62
     0
100
AcDbCircle
 10
0.0
 20
0.0
 30
0.0
 40
0.5
  0
ENDBLK
  5
91
330
8F
100
AcDbEntity
  8
0
100
AcDbBlockEnd
  0
BLOCK
  5
93
330
92
100
AcDbEntity
  8
0
100
AcDbBlockBegin
  2
EX_WCIR2
 70
     0
 10
0.0
 20
0.0
 30
0.0
  3
EX_WCIR2
  1
EX_WCIR2
  0
LINE
  5
BB
330
92
100
AcDbEntity
  8
0
  6
CONTINUOUS
 62
     0
100
AcDbLine
 10
-0.5
 20
0.0
 30
0.0
 11
-1.0
 21
0.0
 31
0.0
  0
CIRCLE
  5
BC
330
92
100
AcDbEntity
  8
0
  6
CONTINUOUS
 62
     0
100
AcDbCircle
 10
0.0
 20
0.0
 30
0.0
 40
0.5
  0
ENDBLK
  5
94
330
92
100
AcDbEntity
  8
0
100
AcDbBlockEnd
  0
BLOCK
  5
96
330
95
100
AcDbEntity
  8
0
100
AcDbBlockBegin
  2
EX_WNORM
 70
     0
 10
0.0
 20
0.0
 30
0.0
  3
EX_WNORM
  1
EX_WNORM
  0
LINE
  5
BD
330
95
100
AcDbEntity
  8
0
  6
CONTINUOUS
 62
     0
100
AcDbLine
 10
-1.0
 20
0.0
 30
0.0
 11
-1.0
 21
0.0
 31
0.0
  0
LINE
  5
BE
330
95
100
AcDbEntity
  8
0
  6
CONTINUOUS
 62
     0
100
AcDbLine
 10
0.0
 20
0.0
 30
0.0
 11
-1.0
 21
0.166666667
 31
0.0
  0
LINE
  5
BF
330
95
100
AcDbEntity
  8
0
  6
CONTINUOUS
 62
     0
100
AcDbLine
 10
0.0
 20
0.0
 30
0.0
 11
-1.0
 21
-0.166666667
 31
0.0
  0
LINE
  5
C0
330
95
100
AcDbEntity
  8
0
  6
CONTINUOUS
 62
     0
100
AcDbLine
 10
-1.0
 20
0.166666667
 30
0.0
 11
-1.0
 21
-0.166666667
 31
0.0
  0
ENDBLK
  5
97
330
95
100
AcDbEntity
  8
0
100
AcDbBlockEnd
  0
BLOCK
  5
99
330
98
100
AcDbEntity
  8
0
100
AcDbBlockBegin
  2
EX_NNORM
 70
     0
 10
0.0
 20
0.0
 30
0.0
  3
EX_NNORM
  1
EX_NNORM
  0
LINE
  5
C1
330
98
100
AcDbEntity
  8
0
  6
CONTINUOUS
 62
     0
100
AcDbLine
 10
0.0
 20
0.0
 30
0.0
 11
-1.0
 21
0.0
 31
0.0
  0
LINE
  5
C2
330
98
100
AcDbEntity
  8
0
  6
CONTINUOUS
 62
     0
100
AcDbLine
 10
0.0
 20
0.0
 30
0.0
 11
-1.0
 21
0.166666667
 31
0.0
  0
LINE
  5
C3
330
98
100
AcDbEntity
  8
0
  6
CONTINUOUS
 62
     0
100
AcDbLine
 10
0.0
 20
0.0
 30
0.0
 11
-1.0
 21
-0.166666667
 31
0.0
  0
LINE
  5
C4
330
98
100
AcDbEntity
  8
0
  6
CONTINUOUS
 62
     0
100
AcDbLine
 10
-1.0
 20
0.166666667
 30
0.0
 11
-1.0
 21
-0.166666667
 31
0.0
  0
ENDBLK
  5
9A
330
98
100
AcDbEntity
  8
0
100
AcDbBlockEnd
  0
BLOCK
  5
9C
330
9B
100
AcDbEntity
  8
0
100
AcDbBlockBegin
  2
EX_BBOX
 70
     0
 10
0.0
 20
0.0
 30
0.0
  3
EX_BBOX
  1
EX_BBOX
  0
LINE
  5
C5
330
9B
100
AcDbEntity
  8
0
  6
CONTINUOUS
 62
     0
100
AcDbLine
 10
0.0
 20
0.0
 30
0.0
 11
-1.0
 21
0.0
 31
0.0
  0
LINE
  5
C6
330
9B
100
AcDbEntity
  8
0
  6
CONTINUOUS
 62
     0
100
AcDbLine
 10
-0.5
 20
0.5
 30
0.0
 11
0.5
 21
0.5
 31
0.0
  0
LINE
  5
C7
330
9B
100
AcDbEntity
  8
0
  6
CONTINUOUS
 62
     0
100
AcDbLine
 10
0.5
 20
0.5
 30
0.0
 11
0.5
 21
-0.5
 31
0.0
  0
LINE
  5
C8
330
9B
100
AcDbEntity
  8
0
  6
CONTINUOUS
 62
     0
100
AcDbLine
 10
0.5
 20
-0.5
 30
0.0
 11
-0.5
 21
-0.5
 31
0.0
  0
LINE
  5
C9
330
9B
100
AcDbEntity
  8
0
  6
CONTINUOUS
 62
     0
100
AcDbLine
 10
-0.5
 20
-0.5
 30
0.0
 11
-0.5
 21
0.5
 31
0.0
  0
LINE
  5
CA
330
9B
100
AcDbEntity
  8
0
  6
CONTINUOUS
 62
     0
100
AcDbLine
 10
-0.25
 20
0.25
 30
0.0
 11
0.25
 21
0.25
 31
0.0
  0
LINE
  5
CB
330
9B
100
AcDbEntity
  8
0
  6
CONTINUOUS
 62
     0
100
AcDbLine
 10
0.25
 20
0.25
 30
0.0
 11
0.25
 21
-0.25
 31
0.0
  0
LINE
  5
CC
330
9B
100
AcDbEntity
  8
0
  6
CONTINUOUS
 62
     0
100
AcDbLine
 10
0.25
 20
-0.25
 30
0.0
 11
-0.25
 21
-0.25
 31
0.0
  0
LINE
  5
CD
330
9B
100
AcDbEntity
  8
0
  6
CONTINUOUS
 62
     0
100
AcDbLine
 10
-0.25
 20
-0.25
 30
0.0
 11
-0.25
 21
0.25
 31
0.0
  0
ENDBLK
  5
9D
330
9B
100
AcDbEntity
  8
0
100
AcDbBlockEnd
  0
BLOCK
  5
9F
330
9E
100
AcDbEntity
  8
0
100
AcDbBlockBegin
  2
EX_WBOX
 70
     0
 10
0.0
 20
0.0
 30
0.0
  3
EX_WBOX
  1
EX_WBOX
  0
LINE
  5
CE
330
9E
100
AcDbEntity
  8
0
  6
CONTINUOUS
 62
     0
100
AcDbLine
 10
-0.5
 20
0.0
 30
0.0
 11
-1.0
 21
0.0
 31
0.0
  0
LINE
  5
CF
330
9E
100
AcDbEntity
  8
0
  6
CONTINUOUS
 62
     0
100
AcDbLine
 10
-0.5
 20
0.5
 30
0.0
 11
0.5
 21
0.5
 31
0.0
  0
LINE
  5
D0
330
9E
100
AcDbEntity
  8
0
  6
CONTINUOUS
 62
     0
100
AcDbLine
 10
0.5
 20
0.5
 30
0.0
 11
0.5
 21
-0.5
 31
0.0
  0
LINE
  5
D1
330
9E
100
AcDbEntity
  8
0
  6
CONTINUOUS
 62
     0
100
AcDbLine
 10
0.5
 20
-0.5
 30
0.0
 11
-0.5
 21
-0.5
 31
0.0
  0
LINE
  5
D2
330
9E
100
AcDbEntity
  8
0
  6
CONTINUOUS
 62
     0
100
AcDbLine
 10
-0.5
 20
-0.5
 30
0.0
 11
-0.5
 21
0.5
 31
0.0
  0
ENDBLK
  5
A0
330
9E
100
AcDbEntity
  8
0
100
AcDbBlockEnd
  0
BLOCK
  5
A2
330
A1
100
AcDbEntity
  8
0
100
AcDbBlockBegin
  2
EX_INTEGRAL
 70
     0
 10
0.0
 20
0.0
 30
0.0
  3
EX_INTEGRAL
  1
EX_INTEGRAL
  0
LINE
  5
D3
330
A1
100
AcDbEntity
  8
0
  6
CONTINUOUS
 62
     0
100
AcDbLine
 10
0.0
 20
0.0
 30
0.0
 11
-1.0
 21
0.0
 31
0.0
  0
ARC
  5
D4
330
A1
100
AcDbEntity
  8
0
  6
CONTINUOUS
 62
     0
100
AcDbCircle
 10
0.542115
 20
0.164992
 30
0.0
 40
0.56667
100
AcDbArc
 50
73.07249033629006
 51
196.9275130221199
  0
ARC
  5
D5
330
A1
100
AcDbEntity
  8
0
  6
CONTINUOUS
 62
     0
100
AcDbCircle
 10
-0.542115
 20
-0.164992
 30
0.0
 40
0.56667
100
AcDbArc
 50
253.0724869220464
 51
16.9275130559125
  0
ENDBLK
  5
A3
330
A1
100
AcDbEntity
  8
0
100
AcDbBlockEnd
  0
BLOCK
  5
1AD
330
1AC
100
AcDbEntity
  8
0
100
AcDbBlockBegin
  2
*D15
 70
     1
 10
0.0
 20
0.0
 30
0.0
  3
*D15
  1
*D15
  0
LINE
  5
1AF
330
1AC
100
AcDbEntity
  8
外観図
  6
CONTINUOUS
 62
     2
100
AcDbLine
 10
544.7550686121903
 20
585.5
 30
0.0
 11
544.7550686121903
 21
765.8388949499999
 31
0.0
  0
LINE
  5
1B0
330
1AC
100
AcDbEntity
  8
外観図
  6
CONTINUOUS
 62
     2
100
AcDbLine
 10
354.7050686121902
 20
735.5150000000001
 30
0.0
 11
354.7050686121902
 21
765.8388949499999
 31
0.0
  0
LINE
  5
1B1
330
1AC
100
AcDbEntity
  8
外観図
  6
CONTINUOUS
 62
     2
100
AcDbLine
 10
529.7550686121903
 20
758.3388949499999
 30
0.0
 11
369.7050686121902
 21
758.3388949499999
 31
0.0
  0
INSERT
  5
1B2
330
1AC
100
AcDbEntity
  8
外観図
 62
     2
100
AcDbBlockReference
  2
EX_NORM
 10
544.7550686121903
 20
758.3388949499999
 30
0.0
 41
15.0
 42
15.0
 43
15.0
  0
INSERT
  5
1B3
330
1AC
100
AcDbEntity
  8
外観図
 62
     2
100
AcDbBlockReference
  2
EX_NORM
 10
354.7050686121902
 20
758.3388949499999
 30
0.0
 41
15.0
 42
15.0
 43
15.0
 50
180.0
  0
MTEXT
  5
1B4
330
1AC
100
AcDbEntity
  8
外観図
 62
     2
100
AcDbMText
 10
449.7300686121904
 20
770.8388949499999
 30
0.0
 40
15.590552
 41
0.0
 71
     5
 72
     1
  1
191
  7
EXCADDIM1
  0
POINT
  5
1B5
330
1AC
100
AcDbEntity
  8
DEFPOINTS
 62
     0
100
AcDbPoint
 10
544.7550686121903
 20
578.0
 30
0.0
  0
POINT
  5
1B6
330
1AC
100
AcDbEntity
  8
DEFPOINTS
 62
     0
100
AcDbPoint
 10
354.7050686121902
 20
728.0150000000001
 30
0.0
  0
POINT
  5
1B7
330
1AC
100
AcDbEntity
  8
DEFPOINTS
 62
     0
100
AcDbPoint
 10
354.7050686121902
 20
758.3388949499999
 30
0.0
  0
ENDBLK
  5
1AE
330
1AC
100
AcDbEntity
  8
0
100
AcDbBlockEnd
  0
BLOCK
  5
1BA
330
1B9
100
AcDbEntity
  8
0
100
AcDbBlockBegin
  2
*D16
 70
     1
 10
0.0
 20
0.0
 30
0.0
  3
*D16
  1
*D16
  0
LINE
  5
1BC
330
1B9
100
AcDbEntity
  8
外観図
  6
CONTINUOUS
 62
     2
100
AcDbLine
 10
354.7050686121902
 20
735.5150000000001
 30
0.0
 11
354.7050686121902
 21
807.3388949499999
 31
0.0
  0
LINE
  5
1BD
330
1B9
100
AcDbEntity
  8
外観図
  6
CONTINUOUS
 62
     2
100
AcDbLine
 10
705.6236259734902
 20
587.35567222895
 30
0.0
 11
705.6236259734902
 21
807.3388949499999
 31
0.0
  0
LINE
  5
1BE
330
1B9
100
AcDbEntity
  8
外観図
  6
CONTINUOUS
 62
     2
100
AcDbLine
 10
369.7050686121902
 20
799.8388949499999
 30
0.0
 11
690.6236259734902
 21
799.8388949499999
 31
0.0
  0
INSERT
  5
1BF
330
1B9
100
AcDbEntity
  8
外観図
 62
     2
100
AcDbBlockReference
  2
EX_NORM
 10
354.7050686121902
 20
799.8388949499999
 30
0.0
 41
15.0
 42
15.0
 43
15.0
 50
180.0
  0
INSERT
  5
1C0
330
1B9
100
AcDbEntity
  8
外観図
 62
     2
100
AcDbBlockReference
  2
EX_NORM
 10
705.6236259734902
 20
799.8388949499999
 30
0.0
 41
15.0
 42
15.0
 43
15.0
  0
MTEXT
  5
1C1
330
1B9
100
AcDbEntity
  8
外観図
 62
     2
100
AcDbMText
 10
530.1643472928404
 20
812.3388949499999
 30
0.0
 40
15.590552
 41
0.0
 71
     5
 72
     1
  1
351
  7
EXCADDIM1
  0
POINT
  5
1C2
330
1B9
100
AcDbEntity
  8
DEFPOINTS
 62
     0
100
AcDbPoint
 10
354.7050686121902
 20
728.0150000000001
 30
0.0
  0
POINT
  5
1C3
330
1B9
100
AcDbEntity
  8
DEFPOINTS
 62
     0
100
AcDbPoint
 10
705.6236259734902
 20
579.85567222895
 30
0.0
  0
POINT
  5
1C4
330
1B9
100
AcDbEntity
  8
DEFPOINTS
 62
     0
100
AcDbPoint
 10
705.6236259734902
 20
799.8388949499999
 30
0.0
  0
ENDBLK
  5
1BB
330
1B9
100
AcDbEntity
  8
0
100
AcDbBlockEnd
  0
BLOCK
  5
1C7
330
1C6
100
AcDbEntity
  8
0
100
AcDbBlockBegin
  2
*D17
 70
     1
 10
0.0
 20
0.0
 30
0.0
  3
*D17
  1
*D17
  0
LINE
  5
1C9
330
1C6
100
AcDbEntity
  8
外観図
  6
CONTINUOUS
 62
     2
100
AcDbLine
 10
880.4874975905228
 20
585.5000000000039
 30
0.0
 11
880.4874975905228
 21
807.3388949499999
 31
0.0
  0
LINE
  5
1CA
330
1C6
100
AcDbEntity
  8
外観図
  6
CONTINUOUS
 62
     2
100
AcDbLine
 10
1190.4874975905
 20
585.5
 30
0.0
 11
1190.4874975905
 21
807.3388949499999
 31
0.0
  0
LINE
  5
1CB
330
1C6
100
AcDbEntity
  8
外観図
  6
CONTINUOUS
 62
     2
100
AcDbLine
 10
895.4874975905228
 20
799.8388949499999
 30
0.0
 11
1175.4874975905
 21
799.8388949499999
 31
0.0
  0
INSERT
  5
1CC
330
1C6
100
AcDbEntity
  8
外観図
 62
     2
100
AcDbBlockReference
  2
EX_NORM
 10
880.4874975905228
 20
799.8388949499999
 30
0.0
 41
15.0
 42
15.0
 43
15.0
 50
180.0
  0
INSERT
  5
1CD
330
1C6
100
AcDbEntity
  8
外観図
 62
     2
100
AcDbBlockReference
  2
EX_NORM
 10
1190.4874975905
 20
799.8388949499999
 30
0.0
 41
15.0
 42
15.0
 43
15.0
  0
MTEXT
  5
1CE
330
1C6
100
AcDbEntity
  8
外観図
 62
     2
100
AcDbMText
 10
1035.487497590512
 20
812.3388949499999
 30
0.0
 40
15.590552
 41
0.0
 71
     5
 72
     1
  1
%%c310
  7
EXCADDIM1
  0
POINT
  5
1CF
330
1C6
100
AcDbEntity
  8
DEFPOINTS
 62
     0
100
AcDbPoint
 10
880.4874975905228
 20
578.0000000000039
 30
0.0
  0
POINT
  5
1D0
330
1C6
100
AcDbEntity
  8
DEFPOINTS
 62
     0
100
AcDbPoint
 10
1190.4874975905
 20
578.0
 30
0.0
  0
POINT
  5
1D1
330
1C6
100
AcDbEntity
  8
DEFPOINTS
 62
     0
100
AcDbPoint
 10
1190.4874975905
 20
799.8388949499999
 30
0.0
  0
ENDBLK
  5
1C8
330
1C6
100
AcDbEntity
  8
0
100
AcDbBlockEnd
  0
BLOCK
  5
1D4
330
1D3
100
AcDbEntity
  8
0
100
AcDbBlockBegin
  2
*D18
 70
     1
 10
0.0
 20
0.0
 30
0.0
  3
*D18
  1
*D18
  0
LINE
  5
1D6
330
1D3
100
AcDbEntity
  8
外観図
  6
CONTINUOUS
 62
     2
100
AcDbLine
 10
935.9874975905202
 20
578.0
 30
0.0
 11
830.5000000000002
 21
578.0
 31
0.0
  0
LINE
  5
1D7
330
1D3
100
AcDbEntity
  8
外観図
  6
CONTINUOUS
 62
     2
100
AcDbLine
 10
948.9874975905202
 20
397.0
 30
0.0
 11
830.5000000000002
 21
397.0
 31
0.0
  0
LINE
  5
1D8
330
1D3
100
AcDbEntity
  8
外観図
  6
CONTINUOUS
 62
     2
100
AcDbLine
 10
838.0000000000002
 20
563.0
 30
0.0
 11
838.0000000000002
 21
412.0
 31
0.0
  0
INSERT
  5
1D9
330
1D3
100
AcDbEntity
  8
外観図
 62
     2
100
AcDbBlockReference
  2
EX_NORM
 10
838.0000000000002
 20
578.0
 30
0.0
 41
15.0
 42
15.0
 43
15.0
 50
90.0
  0
INSERT
  5
1DA
330
1D3
100
AcDbEntity
  8
外観図
 62
     2
100
AcDbBlockReference
  2
EX_NORM
 10
838.0000000000002
 20
397.0
 30
0.0
 41
15.0
 42
15.0
 43
15.0
 50
270.0
  0
MTEXT
  5
1DB
330
1D3
100
AcDbEntity
  8
外観図
 62
     2
100
AcDbMText
 10
825.5000000000002
 20
487.5
 30
0.0
 40
15.590552
 41
0.0
 71
     5
 72
     1
  1
181
  7
EXCADDIM1
 11
0.0
 21
1.0
 31
0.0
  0
POINT
  5
1DC
330
1D3
100
AcDbEntity
  8
DEFPOINTS
 62
     0
100
AcDbPoint
 10
943.4874975905202
 20
578.0
 30
0.0
  0
POINT
  5
1DD
330
1D3
100
AcDbEntity
  8
DEFPOINTS
 62
     0
100
AcDbPoint
 10
956.4874975905202
 20
397.0
 30
0.0
  0
POINT
  5
1DE
330
1D3
100
AcDbEntity
  8
DEFPOINTS
 62
     0
100
AcDbPoint
 10
838.0000000000002
 20
397.0
 30
0.0
  0
ENDBLK
  5
1D5
330
1D3
100
AcDbEntity
  8
0
100
AcDbBlockEnd
  0
ENDSEC
  0
SECTION
  2
ENTITIES
  0
TEXT
  5
D7
330
1F
100
AcDbEntity
  8
0
  6
CONTINUOUS
 62
     7
100
AcDbText
 10
1212.970031628506
 20
33.44910416787457
 30
0.0
 40
11.5473441108545
  1
A4　MK-69
 41
0.9992307692307691
  7
EXCADTTF1
 72
     5
 11
1280.470031628506
 21
33.44910416787457
 31
0.0
100
AcDbText
  0
HATCH
  5
D8
330
1F
100
AcDbEntity
  8
0
  6
CONTINUOUS
 62
     4
100
AcDbHatch
 10
0.0
 20
0.0
 30
0.0
210
0.0
220
0.0
230
1.0
  2
SOLID
 70
     1
 71
     1
 91
        1
 92
        3
 72
     0
 73
     1
 93
      102
 10
114.3116388631771
 20
896.1102655602556
 10
101.823159490566
 20
896.1102655602556
 10
101.7623635857482
 20
896.1089338526696
 10
101.6986461494524
 20
896.1083717486906
 10
101.6321985759986
 20
896.1085611298466
 10
101.5632122597066
 20
896.1094838776686
 10
101.4918785948964
 20
896.1111218736852
 10
101.4183889758878
 20
896.1134569994261
 10
101.3429347970007
 20
896.1164711364196
 10
101.2657074525548
 20
896.1201461661966
 10
101.1868983368704
 20
896.1244639702866
 10
101.1066988442671
 20
896.1294064302181
 10
101.0253003690647
 20
896.1349554275206
 10
100.9428943055834
 20
896.1410928437246
 10
100.8596720481427
 20
896.1478005603581
 10
100.7758249910629
 20
896.1550604589521
 10
100.6915445286636
 20
896.1628544210346
 10
100.6070220552648
 20
896.1711643281361
 10
100.5224489651863
 20
896.1799720617855
 10
100.4380166527481
 20
896.1892595035121
 10
100.3539165122701
 20
896.1990085348466
 10
100.270339938072
 20
896.2092010373166
 10
100.1874783244739
 20
896.2198188924526
 10
100.1055230657956
 20
896.2308439817841
 10
100.024665556357
 20
896.2422581868401
 10
99.94509719047785
 20
896.2540433891505
 10
99.86700936247819
 20
896.2661814702445
 10
99.7905934666779
 20
896.2786543116512
 10
99.71604089739685
 20
896.291443794901
 10
99.6435430489549
 20
896.3045318015221
 10
99.5732913156719
 20
896.317900213045
 10
99.50547709186783
 20
896.3315309109987
 10
99.4402917718626
 20
896.3454057769127
 10
99.37792674997596
 20
896.3595066923166
 10
99.31857342052784
 20
896.373815538739
 10
99.31857342052784
 20
921.1044497942671
 10
99.3277342726232
 20
921.4789641407585
 10
99.35493220595124
 20
921.8486854328015
 10
99.39974028607485
 20
922.213186304567
 10
99.46173157855699
 20
922.5720393902266
 10
99.54047914896054
 20
922.9248173239502
 10
99.6355560628485
 20
923.2710927399087
 10
99.74653538578374
 20
923.6104382722722
 10
99.8729901833292
 20
923.942426555213
 10
100.0144935210479
 20
924.2666302229005
 10
100.1706184645026
 20
924.5826219095065
 10
100.3409380792562
 20
924.8899742492006
 10
100.5250254308719
 20
925.1882598761551
 10
100.7224535849125
 20
925.4770514245396
 10
100.9327956069408
 20
925.755921528525
 10
101.1556245625198
 20
926.0244428222826
 10
101.3905135172125
 20
926.2821879399831
 10
101.6370355365817
 20
926.5287295157966
 10
101.8947636861905
 20
926.7636401838942
 10
102.1632710316018
 20
926.9864925784476
 10
102.4421306383783
 20
927.1968593336261
 10
102.730915572083
 20
927.3943130836011
 10
103.029198898279
 20
927.5784264625436
 10
103.3365536825293
 20
927.7487721046242
 10
103.6525529903965
 20
927.904922644013
 10
103.9767698874438
 20
928.0464507148821
 10
104.3087774392339
 20
928.1729289514017
 10
104.6481487113299
 20
928.2839299877421
 10
104.9944567692946
 20
928.3790264580741
 10
105.3472746786911
 20
928.4577909965697
 10
105.7061755050822
 20
928.5197962373976
 10
106.0707323140308
 20
928.5646148147312
 10
106.4405181711
 20
928.5918193627386
 10
106.8151061418525
 20
928.600982515592
 10
107.189694112605
 20
928.5918193627386
 10
107.5594799696741
 20
928.5646148147312
 10
107.9240367786227
 20
928.5197962373976
 10
108.2829376050139
 20
928.4577909965697
 10
108.6357555144103
 20
928.3790264580741
 10
108.9820635723751
 20
928.2839299877421
 10
109.3214348444711
 20
928.1729289514017
 10
109.6534423962612
 20
928.0464507148821
 10
109.9776592933084
 20
927.904922644013
 10
110.2936586011757
 20
927.7487721046242
 10
110.6010133854258
 20
927.5784264625436
 10
110.8992967116219
 20
927.3943130836011
 10
111.1880816453267
 20
927.1968593336261
 10
111.4669412521033
 20
926.9864925784476
 10
111.7354485975144
 20
926.7636401838942
 10
111.9931767471232
 20
926.5287295157966
 10
112.2396987664924
 20
926.2821879399831
 10
112.4745877211851
 20
926.0244428222826
 10
112.6974166767642
 20
925.755921528525
 10
112.9077586987925
 20
925.4770514245396
 10
113.105186852833
 20
925.1882598761551
 10
113.2892742044486
 20
924.8899742492006
 10
113.4595938192024
 20
924.5826219095065
 10
113.6157187626571
 20
924.2666302229005
 10
113.7572221003757
 20
923.942426555213
 10
113.8836768979212
 20
923.6104382722722
 10
113.9946562208565
 20
923.2710927399087
 10
114.0897331347444
 20
922.9248173239502
 10
114.168480705148
 20
922.5720393902266
 10
114.2304719976301
 20
922.213186304567
 10
114.2752800777537
 20
921.8486854328015
 10
114.3024780110817
 20
921.4789641407585
 10
114.3116388631771
 20
921.1044497942671
 97
        0
 75
     0
 76
     1
 98
        1
 10
0.0
 20
0.0
  0
HATCH
  5
D9
330
1F
100
AcDbEntity
  8
0
  6
CONTINUOUS
 62
     4
100
AcDbHatch
 10
0.0
 20
0.0
 30
0.0
210
0.0
220
0.0
230
1.0
  2
SOLID
 70
     1
 71
     1
 91
        1
 92
        3
 72
     0
 73
     1
 93
      204
 10
129.3227910690557
 20
923.6090358643056
 10
129.3074582174855
 20
924.2323739469806
 10
129.2619407129613
 20
924.8478917526521
 10
129.1869601307627
 20
925.4548679936331
 10
129.0832380461695
 20
926.0525813822411
 10
128.9514960344612
 20
926.64031063079
 10
128.7924556709174
 20
927.2173344515951
 10
128.6068385308178
 20
927.7829315569711
 10
128.395366189442
 20
928.336380659234
 10
128.1587602220697
 20
928.876960470699
 10
127.8977422039805
 20
929.4039497036806
 10
127.6130337104539
 20
929.9166270704935
 10
127.3053563167697
 20
930.4142712834541
 10
126.9754315982075
 20
930.8961610548766
 10
126.623981130047
 20
931.3615750970771
 10
126.2517264875676
 20
931.8097921223696
 10
125.8593892460492
 20
932.2400908430697
 10
125.4476909807713
 20
932.6517499714921
 10
125.0173532670134
 20
933.0440482199532
 10
124.5690976800555
 20
933.4162643007671
 10
124.1036457951769
 20
933.7676769262487
 10
123.6217191876573
 20
934.0975648087147
 10
123.1240394327765
 20
934.4052066604776
 10
122.611328105814
 20
934.6898811938556
 10
122.0843067820494
 20
934.9508671211615
 10
121.5436970367624
 20
935.1874431547117
 10
120.9902204452326
 20
935.39888800682
 10
120.4245985827397
 20
935.5844803898035
 10
119.8475530245632
 20
935.7434990159755
 10
119.2598053459828
 20
935.8752225976526
 10
118.6620771222782
 20
935.9789298471486
 10
118.055089928729
 20
936.0538994767802
 10
117.4395653406148
 20
936.0994101988606
 10
116.8162249332152
 20
936.1147407257065
 10
106.8151061418525
 20
936.1147407257065
 10
106.1918881779265
 20
936.0994101988606
 10
105.5765705861485
 20
936.0538994767802
 10
104.9698693337
 20
935.9789298471486
 10
104.3725003877627
 20
935.8752225976526
 10
103.7851797155182
 20
935.7434990159755
 10
103.2086232841479
 20
935.5844803898035
 10
102.6435470608336
 20
935.39888800682
 10
102.0906670127569
 20
935.1874431547117
 10
101.5506991070994
 20
934.9508671211615
 10
101.0243593110426
 20
934.6898811938556
 10
100.5123635917681
 20
934.4052066604776
 10
100.0154279164578
 20
934.0975648087147
 10
99.53426825229295
 20
933.7676769262487
 10
99.06960056645534
 20
933.4162643007671
 10
98.6221408261265
 20
933.0440482199532
 10
98.19260499848805
 20
932.6517499714921
 10
97.78170905072163
 20
932.2400908430697
 10
97.3901689500088
 20
931.8097921223696
 10
97.01870066353119
 20
931.3615750970771
 10
96.66802015847044
 20
930.8961610548766
 10
96.3388434020081
 20
930.4142712834541
 10
96.03188636132569
 20
929.9166270704935
 10
95.7478650036051
 20
929.4039497036806
 10
95.48749529602763
 20
928.876960470699
 10
95.25149320577505
 20
928.336380659234
 10
95.04057470002888
 20
927.7829315569711
 10
94.85545574597084
 20
927.2173344515951
 10
94.69685231078239
 20
926.64031063079
 10
94.5654803616452
 20
926.0525813822411
 10
94.4620558657409
 20
925.4548679936331
 10
94.38729479025115
 20
924.8478917526521
 10
94.3419131023574
 20
924.2323739469806
 10
94.32662676924134
 20
923.6090358643056
 10
94.32662676924134
 20
898.6148516302935
 10
94.0593210427145
 20
898.7996461295177
 10
93.79628235980024
 20
898.9978563496051
 10
93.5377964459032
 20
899.2088993359541
 10
93.28414902642805
 20
899.4321921339656
 10
93.03562582677955
 20
899.6671517890396
 10
92.7925125723622
 20
899.9131953465755
 10
92.55509498858079
 20
900.1697398519731
 10
92.32365880083994
 20
900.4362023506321
 10
92.09848973454434
 20
900.7119998879525
 10
91.8798735150987
 20
900.9965495093351
 10
91.6680958679076
 20
901.2892682601776
 10
91.46344251837576
 20
901.589573185882
 10
91.2661991919079
 20
901.8968813318465
 10
91.0766516139086
 20
902.2106097434727
 10
90.89508550978249
 20
902.5301754661581
 10
90.72178660493445
 20
902.8549955453045
 10
90.55704062476894
 20
903.1844870263111
 10
90.40113329469065
 20
903.5180669545771
 10
90.2543503401044
 20
903.8551523755036
 10
90.1169774864147
 20
904.1951603344891
 10
89.9893004590263
 20
904.5375078769346
 10
89.87160498334384
 20
904.881612048239
 10
89.76417678477205
 20
905.2268898938031
 10
89.6673015887155
 20
905.5727584590256
 10
89.58126512057889
 20
905.9186347893071
 10
89.50635310576695
 20
906.2639359300472
 10
89.44285126968428
 20
906.608078926646
 10
89.3910453377356
 20
906.9504808245031
 10
89.35122103532554
 20
907.2905586690175
 10
89.32366408785875
 20
907.6277295055907
 10
89.30866022074
 20
907.9614103796215
 10
89.30649515937384
 20
908.2910183365101
 10
89.31745462916504
 20
908.6159704216561
 10
89.31745462916504
 20
933.610154655668
 10
89.33273914084754
 20
934.2334462438556
 10
89.37811756933385
 20
934.8488284006596
 10
89.45287725478225
 20
935.4555855902911
 10
89.55630553735105
 20
936.0530022769601
 10
89.68768975719844
 20
936.640362924878
 10
89.8463172544827
 20
937.2169519982551
 10
90.03147536936204
 20
937.7820539613006
 10
90.24245144199479
 20
938.3349532782271
 10
90.47853281253914
 20
938.8749344132441
 10
90.73900682115345
 20
939.4012818305625
 10
91.02316080799585
 20
939.9132799943922
 10
91.3302821132247
 20
940.4102133689452
 10
91.6596580769982
 20
940.8913664184297
 10
92.01057603947464
 20
941.3560236070585
 10
92.38232334081225
 20
941.8034693990406
 10
92.77418732116935
 20
942.2329882585876
 10
93.1854553207041
 20
942.6438646499096
 10
93.6154146795748
 20
943.035383037217
 10
94.0633527379398
 20
943.406827884721
 10
94.52855683595715
 20
943.7574836566316
 10
95.0103143137853
 20
944.0866348171596
 10
95.50791251158239
 20
944.3935658305146
 10
96.02063876950685
 20
944.677561160909
 10
96.54778042771669
 20
944.9379052725516
 10
97.08862482637034
 20
945.1738826296537
 10
97.64245930562605
 20
945.3847776964261
 10
98.208571205642
 20
945.5698749370796
 10
98.78624786657649
 20
945.7284588158236
 10
99.37477662858775
 20
945.8598137968687
 10
99.97344483183404
 20
945.9632243444266
 10
100.5815398164738
 20
946.0379749227076
 10
101.198348922665
 20
946.0833499959216
 10
101.823159490566
 20
946.0986340282797
 10
126.8182049990176
 20
946.0986340282797
 10
127.4414206382191
 20
946.0833499959216
 10
128.0567314475538
 20
946.0379749227076
 10
128.6634217474347
 20
945.9632243444266
 10
129.2607758582751
 20
945.8598137968687
 10
129.8480781004882
 20
945.7284588158236
 10
130.424612794487
 20
945.5698749370796
 10
130.9896642606847
 20
945.3847776964261
 10
131.5425168194946
 20
945.1738826296537
 10
132.0824547913298
 20
944.9379052725516
 10
132.6087624966034
 20
944.677561160909
 10
133.1207242557286
 20
944.3935658305146
 10
133.6176243891185
 20
944.0866348171596
 10
134.0987472171865
 20
943.7574836566316
 10
134.5633770603457
 20
943.406827884721
 10
135.0107982390089
 20
943.035383037217
 10
135.4402950735897
 20
942.6438646499096
 10
135.8511518845011
 20
942.2329882585876
 10
136.2426529921562
 20
941.8034693990406
 10
136.6140827169684
 20
941.3560236070585
 10
136.9647253793506
 20
940.8913664184297
 10
137.2938652997161
 20
940.4102133689452
 10
137.600786798478
 20
939.9132799943922
 10
137.8847741960495
 20
939.4012818305625
 10
138.1451118128437
 20
938.8749344132441
 10
138.381083969274
 20
938.3349532782271
 10
138.5919749857533
 20
937.7820539613006
 10
138.7770691826949
 20
937.2169519982551
 10
138.9356508805118
 20
936.640362924878
 10
139.0670043996175
 20
936.0530022769601
 10
139.1704140604249
 20
935.4555855902911
 10
139.2451641833471
 20
934.8488284006596
 10
139.2905390887975
 20
934.2334462438556
 10
139.3058230971892
 20
933.610154655668
 10
139.3058230971892
 20
908.6159704216561
 10
139.3061227949065
 20
908.0910523024161
 10
139.2817133565087
 20
907.568757047484
 10
139.2331544414197
 20
907.0497619425461
 10
139.1610057090631
 20
906.5347442732862
 10
139.0658268188627
 20
906.0243813253902
 10
138.9481774302423
 20
905.5193503845421
 10
138.8086172026255
 20
905.0203287364271
 10
138.6477057954361
 20
904.5279936667312
 10
138.4660028680979
 20
904.0430224611375
 10
138.2640680800346
 20
903.5660924053332
 10
138.04246109067
 20
903.0978807850006
 10
137.8017415594277
 20
902.6390648858276
 10
137.5424691457315
 20
902.1903219934967
 10
137.2652035090053
 20
901.752329393694
 10
136.9705043086726
 20
901.3257643721041
 10
136.6589312041573
 20
900.9113042144122
 10
136.331043854883
 20
900.5096262063031
 10
135.9874019202736
 20
900.1214076334617
 10
135.6285650597528
 20
899.7473257815735
 10
135.2550929327443
 20
899.3880579363226
 10
134.8675451986717
 20
899.044281383394
 10
134.466481516959
 20
898.7166734084731
 10
134.0524615470299
 20
898.4059112972451
 10
133.626044948308
 20
898.1126723353941
 10
133.1877913802171
 20
897.8376338086061
 10
132.738260502181
 20
897.5814730025646
 10
132.2780119736235
 20
897.3448672029566
 10
131.807605453968
 20
897.1284936954646
 10
131.3276006026386
 20
896.9330297657757
 10
130.838557079059
 20
896.7591526995731
 10
130.3410345426528
 20
896.6075397825435
 10
129.8355926528438
 20
896.4788683003701
 10
129.3227910690557
 20
896.373815538739
 97
        0
 75
     0
 76
     1
 98
        1
 10
0.0
 20
0.0
  0
HATCH
  5
DA
330
1F
100
AcDbEntity
  8
0
  6
CONTINUOUS
 62
     4
100
AcDbHatch
 10
0.0
 20
0.0
 30
0.0
210
0.0
220
0.0
230
1.0
  2
SOLID
 70
     1
 71
     1
 91
        1
 92
        3
 72
     0
 73
     1
 93
      107
 10
151.8123892330296
 20
896.3565900499495
 10
144.3158565117049
 20
896.3565900499495
 10
144.3158565117049
 20
918.8461882139236
 10
144.3188941835378
 20
918.9720725672415
 10
144.3279149769798
 20
919.0962621245757
 10
144.3427805589463
 20
919.2186185528416
 10
144.3633525963527
 20
919.3390035189541
 10
144.3894927561142
 20
919.4572786898296
 10
144.4210627051461
 20
919.5733057323827
 10
144.4579241103637
 20
919.6869463135281
 10
144.4999386386822
 20
919.798062100182
 10
144.5469679570172
 20
919.9065147592592
 10
144.5988737322838
 20
920.0121659576755
 10
144.6555176313972
 20
920.1148773623456
 10
144.7167613212731
 20
920.2145106401862
 10
144.7824664688264
 20
920.3109274581107
 10
144.8524947409725
 20
920.4039894830356
 10
144.9267078046268
 20
920.4935583818747
 10
145.0049673267045
 20
920.5794958215456
 10
145.087134974121
 20
920.661663468962
 10
145.1730724137915
 20
920.7399229910396
 10
145.2626413126314
 20
920.814136054694
 10
145.355703337556
 20
920.88416432684
 10
145.4521201554805
 20
920.9498694743936
 10
145.5517534333203
 20
921.0111131642691
 10
145.6544648379908
 20
921.067757063383
 10
145.760116036407
 20
921.1196628386491
 10
145.8685686954845
 20
921.1666921569846
 10
145.9796844821384
 20
921.2087066853026
 10
146.0933250632842
 20
921.2455680905206
 10
146.209352105837
 20
921.2771380395526
 10
146.3276272767122
 20
921.303278199314
 10
146.448012242825
 20
921.3238502367201
 10
146.5703686710911
 20
921.3387158186871
 10
146.6945582284253
 20
921.3477366121291
 10
146.8204425817431
 20
921.3507742839615
 10
155.5692683380868
 20
921.3507742839615
 10
156.130353992228
 20
921.3369832998561
 10
156.6842870206251
 20
921.2960425066135
 10
157.2304253679524
 20
921.2286001428481
 10
157.7681269788847
 20
921.1353044471721
 10
158.296749798096
 20
921.0168036581996
 10
158.815651770261
 20
920.8737460145426
 10
159.3241908400541
 20
920.7067797548151
 10
159.8217249521499
 20
920.5165531176297
 10
160.3076120512226
 20
920.3037143415995
 10
160.7812100819469
 20
920.0689116653382
 10
161.2418769889972
 20
919.812793327458
 10
161.6889707170479
 20
919.5360075665731
 10
162.1218492107735
 20
919.2392026212957
 10
162.5398704148484
 20
918.9230267302396
 10
162.9423922739471
 20
918.5881281320167
 10
163.3287727327441
 20
918.2351550652415
 10
163.6983697359138
 20
917.8647557685266
 10
164.0505412281306
 20
917.477578480485
 10
164.3846451540693
 20
917.0742714397302
 10
164.7000394584039
 20
916.6554828848746
 10
164.9960820858091
 20
916.2218610545316
 10
165.2721309809593
 20
915.7740541873142
 10
165.5275440885291
 20
915.3127105218366
 10
165.7616793531928
 20
914.8384782967102
 10
165.9738947196248
 20
914.3520057505496
 10
166.1635481324997
 20
913.8539411219666
 10
166.329997536492
 20
913.3449326495755
 10
166.4726008762759
 20
912.8256285719887
 10
166.5907160965262
 20
912.2966771278192
 10
166.6837011419171
 20
911.7587265556801
 10
166.7509139571233
 20
911.2124250941861
 10
166.791712486819
 20
910.6584209819482
 10
166.8054546756788
 20
910.0973624575802
 10
166.8054546756788
 20
896.3565900499495
 10
159.3089219543542
 20
896.3565900499495
 10
159.3089219543542
 20
908.8450694225606
 10
159.3027987740917
 20
909.0952183954477
 10
159.2846216342057
 20
909.3421770795442
 10
159.2546791360486
 20
909.5856593180521
 10
159.2132598809729
 20
909.825378954175
 10
159.1606524703308
 20
910.0610498311166
 10
159.0971455054747
 20
910.2923857920806
 10
159.023027587757
 20
910.5191006802687
 10
158.9385873185302
 20
910.7409083388842
 10
158.8441132991464
 20
910.9575226111311
 10
158.7398941309584
 20
911.1686573402126
 10
158.6262184153181
 20
911.3740263693305
 10
158.5033747535782
 20
911.5733435416901
 10
158.3716517470911
 20
911.7663227004937
 10
158.2313379972088
 20
911.9526776889436
 10
158.0827221052839
 20
912.1321223502431
 10
157.9260926726691
 20
912.304370527597
 10
157.7617383007163
 20
912.4691360642066
 10
157.5899475907781
 20
912.626132803276
 10
157.4110091442069
 20
912.775074588009
 10
157.2252115623549
 20
912.9156752616071
 10
157.0328434465746
 20
913.0476486672746
 10
156.8341933982183
 20
913.1707086482146
 10
156.6295500186386
 20
913.2845690476305
 10
156.4192019091877
 20
913.388943708724
 10
156.2034376712179
 20
913.4835464747006
 10
155.9825459060817
 20
913.5680911887616
 10
155.7568152151314
 20
913.6422916941111
 10
155.5265341997195
 20
913.7058618339512
 10
155.2919914611983
 20
913.7585154514871
 10
155.0534756009201
 20
913.7999663899196
 10
154.8112752202373
 20
913.8299284924536
 10
154.5656789205025
 20
913.8481156022921
 10
154.3169753030677
 20
913.8542415626371
 10
151.8123892330296
 20
913.8542415626371
 97
        0
 75
     0
 76
     1
 98
        1
 10
0.0
 20
0.0
  0
HATCH
  5
DB
330
1F
100
AcDbEntity
  8
0
  6
CONTINUOUS
 62
     4
100
AcDbHatch
 10
0.0
 20
0.0
 30
0.0
210
0.0
220
0.0
230
1.0
  2
SOLID
 70
     1
 71
     1
 91
        1
 92
        3
 72
     0
 73
     1
 93
      144
 10
178.0327733161117
 20
912.1321223502431
 10
177.8841574241871
 20
911.9526776889436
 10
177.7438436743049
 20
911.7663227004937
 10
177.6121206678177
 20
911.5733435416901
 10
177.4892770060777
 20
911.3740263693305
 10
177.3756012904375
 20
911.1686573402126
 10
177.2713821222493
 20
910.9575226111311
 10
177.1769081028657
 20
910.7409083388842
 10
177.0924678336388
 20
910.5191006802687
 10
177.0183499159212
 20
910.2923857920806
 10
176.9548429510651
 20
910.0610498311166
 10
176.902235540423
 20
909.825378954175
 10
176.8608162853473
 20
909.5856593180521
 10
176.8308737871903
 20
909.3421770795442
 10
176.8126966473042
 20
909.0952183954477
 10
176.8065734670417
 20
908.8450694225606
 10
176.8126966473042
 20
908.5962921808647
 10
176.8308737871903
 20
908.3506313161041
 10
176.852204097862
 20
908.1780537811507
 10
169.3285487618941
 20
908.1780537811507
 10
169.3253247780749
 20
908.2217778343736
 10
169.3100407457171
 20
908.8450694225606
 10
169.3253247780749
 20
909.4698799904615
 10
169.370699851289
 20
910.0866890966531
 10
169.4454504295696
 20
910.6947840812927
 10
169.5488609771274
 20
911.2934522845385
 10
169.6802159581732
 20
911.8819810465501
 10
169.8387998369172
 20
912.4596577074851
 10
170.02389707757
 20
913.0257696075006
 10
170.2347921443424
 20
913.5796040867566
 10
170.4707695014447
 20
914.1204484854101
 10
170.7311136130876
 20
914.6475901436202
 10
171.0151089434815
 20
915.160316401544
 10
171.3220399568371
 20
915.6579145993416
 10
171.6511911173648
 20
916.1396720771696
 10
172.0018468892754
 20
916.6048761751871
 10
172.3732917367791
 20
917.0528142335515
 10
172.7648101240867
 20
917.4827735924226
 10
173.1756865154088
 20
917.8940415919576
 10
173.6052053749557
 20
918.285905572314
 10
174.0526511669383
 20
918.6576528736526
 10
174.5173083555667
 20
919.0085708361286
 10
174.9984614050518
 20
919.3379467999015
 10
175.495394779604
 20
919.6450681051306
 10
176.007392943434
 20
919.9292220919735
 10
176.5337403607522
 20
920.1896961005875
 10
177.0737214957692
 20
920.425777471132
 10
177.6266208126955
 20
920.6367535437647
 10
178.1917227757419
 20
920.8219116586446
 10
178.7683118491186
 20
920.9805391559287
 10
179.3556724970362
 20
921.1119233757756
 10
179.9530891837054
 20
921.2153516583442
 10
180.5598463733369
 20
921.2901113437931
 10
181.1752285301409
 20
921.3354897722792
 10
181.7985201183281
 20
921.3507742839615
 10
182.4233306862293
 20
921.3354897722792
 10
183.0401397924204
 20
921.2901113437931
 10
183.64823477706
 20
921.2153516583442
 10
184.2469029803064
 20
921.1119233757756
 10
184.8354317423177
 20
920.9805391559287
 10
185.4131084032522
 20
920.8219116586446
 10
185.9792203032681
 20
920.6367535437647
 10
186.5330547825238
 20
920.425777471132
 10
187.0738991811774
 20
920.1896961005875
 10
187.6010408393873
 20
919.9292220919735
 10
188.1137670973116
 20
919.6450681051306
 10
188.6113652951088
 20
919.3379467999015
 10
189.0931227729369
 20
919.0085708361286
 10
189.5583268709543
 20
918.6576528736526
 10
190.0062649293193
 20
918.285905572314
 10
190.4362242881901
 20
917.8940415919576
 10
190.8474922877248
 20
917.4827735924226
 10
191.2393562680818
 20
917.0528142335515
 10
191.6111035694195
 20
916.6048761751871
 10
191.9620215318959
 20
916.1396720771696
 10
192.2913974956694
 20
915.6579145993416
 10
192.5985188008982
 20
915.160316401544
 10
192.8826727877407
 20
914.6475901436202
 10
193.1431467963549
 20
914.1204484854101
 10
193.3792281668993
 20
913.5796040867566
 10
193.590204239532
 20
913.0257696075006
 10
193.7753623544115
 20
912.4596577074851
 10
193.9339898516957
 20
911.8819810465501
 10
194.065374071543
 20
911.2934522845385
 10
194.1688023541118
 20
910.6947840812927
 10
194.2435620395603
 20
910.0866890966531
 10
194.2889404680466
 20
909.4698799904615
 10
194.304224979729
 20
908.8450694225606
 10
194.2889404680466
 20
908.2217778343736
 10
194.2857162458289
 20
908.1780537811507
 10
186.7620513052614
 20
908.1780537811507
 10
186.7833881036591
 20
908.3506313161041
 10
186.8015685988173
 20
908.5962921808647
 10
186.8076922584045
 20
908.8450694225606
 10
186.8015685988173
 20
909.0952183954477
 10
186.7833881036591
 20
909.3421770795442
 10
186.7534364983342
 20
909.5856593180521
 10
186.7119995082475
 20
909.825378954175
 10
186.6593628588038
 20
910.0610498311166
 10
186.5958122754076
 20
910.2923857920806
 10
186.5216334834634
 20
910.5191006802687
 10
186.4371122083761
 20
910.7409083388842
 10
186.3425341755503
 20
910.9575226111311
 10
186.2381851103908
 20
911.1686573402126
 10
186.124350738302
 20
911.3740263693305
 10
186.0013167846889
 20
911.5733435416901
 10
185.8693689749559
 20
911.7663227004937
 10
185.7287930345079
 20
911.9526776889436
 10
185.5798746887492
 20
912.1321223502431
 10
185.4228996630849
 20
912.304370527597
 10
185.2581536829193
 20
912.4691360642066
 10
185.0859224736573
 20
912.626132803276
 10
184.9064917607037
 20
912.775074588009
 10
184.7201472694627
 20
912.9156752616071
 10
184.5271747253395
 20
913.0476486672746
 10
184.3278598537383
 20
913.1707086482146
 10
184.1224883800642
 20
913.2845690476305
 10
183.9113460297214
 20
913.388943708724
 10
183.694718528115
 20
913.4835464747006
 10
183.4728916006495
 20
913.5680911887616
 10
183.2461509727295
 20
913.6422916941111
 10
183.0147823697598
 20
913.7058618339512
 10
182.779071517145
 20
913.7585154514871
 10
182.5393041402898
 20
913.7999663899196
 10
182.2957659645988
 20
913.8299284924536
 10
182.0487427154767
 20
913.8481156022921
 10
181.7985201183281
 20
913.8542415626371
 10
181.5498165008934
 20
913.8481156022921
 10
181.3042202011586
 20
913.8299284924536
 10
181.0620198204758
 20
913.7999663899196
 10
180.8235039601977
 20
913.7585154514871
 10
180.5889612216764
 20
913.7058618339512
 10
180.3586802062644
 20
913.6422916941111
 10
180.1329495153141
 20
913.5680911887616
 10
179.912057750178
 20
913.4835464747006
 10
179.6962935122081
 20
913.388943708724
 10
179.4859454027573
 20
913.2845690476305
 10
179.2813020231775
 20
913.1707086482146
 10
179.0826519748213
 20
913.0476486672746
 10
178.890283859041
 20
912.9156752616071
 10
178.704486277189
 20
912.775074588009
 10
178.5255478306177
 20
912.626132803276
 10
178.3537571206795
 20
912.4691360642066
 10
178.1894027487267
 20
912.304370527597
 97
        0
 75
     0
 76
     1
 98
        1
 10
0.0
 20
0.0
  0
HATCH
  5
DC
330
1F
100
AcDbEntity
  8
0
  6
CONTINUOUS
 62
     4
100
AcDbHatch
 10
0.0
 20
0.0
 30
0.0
210
0.0
220
0.0
230
1.0
  2
SOLID
 70
     1
 71
     1
 91
        1
 92
        3
 72
     0
 73
     1
 93
      128
 10
178.7683118491186
 20
896.726765262406
 10
178.1917227757419
 20
896.8853491411501
 10
177.6266208126955
 20
897.0704463818026
 10
177.0737214957692
 20
897.2813414485752
 10
176.5337403607522
 20
897.5173188056772
 10
176.007392943434
 20
897.7776629173206
 10
175.495394779604
 20
898.0616582477137
 10
174.9984614050518
 20
898.3685892610697
 10
174.5173083555667
 20
898.6977404215971
 10
174.0526511669383
 20
899.0483961935081
 10
173.6052053749557
 20
899.4198410410111
 10
173.1756865154088
 20
899.8113594283196
 10
172.7648101240867
 20
900.2222358196411
 10
172.3732917367791
 20
900.6517546791881
 10
172.0018468892754
 20
901.0992004711711
 10
171.6511911173648
 20
901.5638576597992
 10
171.3220399568371
 20
902.0450107092842
 10
171.0151089434815
 20
902.5419440838366
 10
170.7311136130876
 20
903.0539422476666
 10
170.4707695014447
 20
903.5802896649847
 10
170.2347921443424
 20
904.1202708000015
 10
170.02389707757
 20
904.6731701169281
 10
169.8387998369172
 20
905.2382720799746
 10
169.6802159581732
 20
905.8148611533511
 10
169.5488609771274
 20
906.4022218012686
 10
169.4454504295696
 20
906.9996384879381
 10
169.370699851289
 20
907.6063956775696
 10
169.3285487618941
 20
908.1780537811507
 10
176.852204097862
 20
908.1780537811507
 10
176.8608162853473
 20
908.1083749982381
 10
176.902235540423
 20
907.8698113972281
 10
176.9548429510651
 20
907.6352286830337
 10
177.0183499159212
 20
907.4049150256157
 10
177.0924678336388
 20
907.1791585949331
 10
177.1769081028657
 20
906.958247560947
 10
177.2713821222493
 20
906.7424700936182
 10
177.3756012904375
 20
906.5321143629055
 10
177.4892770060777
 20
906.3274685387701
 10
177.6121206678177
 20
906.1288207911721
 10
177.7438436743049
 20
905.9364592900716
 10
177.8841574241871
 20
905.7506722054292
 10
178.0327733161117
 20
905.5717477072036
 10
178.1894027487267
 20
905.399973965357
 10
178.3537571206795
 20
905.2356391498486
 10
178.5255478306177
 20
905.0790314306387
 10
178.704486277189
 20
904.9304389776881
 10
178.890283859041
 20
904.7901499609561
 10
179.0826519748213
 20
904.6584525504036
 10
179.2813020231775
 20
904.53563491599
 10
179.4859454027573
 20
904.421985227677
 10
179.6962935122081
 20
904.3177916554231
 10
179.912057750178
 20
904.22334236919
 10
180.1329495153141
 20
904.1389255389365
 10
180.3586802062644
 20
904.0648293346246
 10
180.5889612216764
 20
904.0013419262126
 10
180.8235039601977
 20
903.948751483662
 10
181.0620198204758
 20
903.9073461769326
 10
181.3042202011586
 20
903.8774141759851
 10
181.5498165008934
 20
903.8592436507787
 10
181.7985201183281
 20
903.8531227712741
 10
182.0487427154767
 20
903.8592436507787
 10
182.2957659645988
 20
903.8774141759851
 10
182.5393041402898
 20
903.9073461769326
 10
182.779071517145
 20
903.948751483662
 10
183.0147823697598
 20
904.0013419262126
 10
183.2461509727295
 20
904.0648293346246
 10
183.4728916006495
 20
904.1389255389365
 10
183.694718528115
 20
904.22334236919
 10
183.9113460297214
 20
904.3177916554231
 10
184.1224883800642
 20
904.421985227677
 10
184.3278598537383
 20
904.53563491599
 10
184.5271747253395
 20
904.6584525504036
 10
184.7201472694627
 20
904.7901499609561
 10
184.9064917607037
 20
904.9304389776881
 10
185.0859224736573
 20
905.0790314306387
 10
185.2581536829193
 20
905.2356391498486
 10
185.4228996630849
 20
905.399973965357
 10
185.5798746887492
 20
905.5717477072036
 10
185.7287930345079
 20
905.7506722054292
 10
185.8693689749559
 20
905.9364592900716
 10
186.0013167846889
 20
906.1288207911721
 10
186.124350738302
 20
906.3274685387701
 10
186.2381851103908
 20
906.5321143629055
 10
186.3425341755503
 20
906.7424700936182
 10
186.4371122083761
 20
906.958247560947
 10
186.5216334834634
 20
907.1791585949331
 10
186.5958122754076
 20
907.4049150256157
 10
186.6593628588038
 20
907.6352286830337
 10
186.7119995082475
 20
907.8698113972281
 10
186.7534364983342
 20
908.1083749982381
 10
186.7620513052614
 20
908.1780537811507
 10
194.2857162458289
 20
908.1780537811507
 10
194.2435620395603
 20
907.6063956775696
 10
194.1688023541118
 20
906.9996384879381
 10
194.065374071543
 20
906.4022218012686
 10
193.9339898516957
 20
905.8148611533511
 10
193.7753623544115
 20
905.2382720799746
 10
193.590204239532
 20
904.6731701169281
 10
193.3792281668993
 20
904.1202708000015
 10
193.1431467963549
 20
903.5802896649847
 10
192.8826727877407
 20
903.0539422476666
 10
192.5985188008982
 20
902.5419440838366
 10
192.2913974956694
 20
902.0450107092842
 10
191.9620215318959
 20
901.5638576597992
 10
191.6111035694195
 20
901.0992004711711
 10
191.2393562680818
 20
900.6517546791881
 10
190.8474922877248
 20
900.2222358196411
 10
190.4362242881901
 20
899.8113594283196
 10
190.0062649293193
 20
899.4198410410111
 10
189.5583268709543
 20
899.0483961935081
 10
189.0931227729369
 20
898.6977404215971
 10
188.6113652951088
 20
898.3685892610697
 10
188.1137670973116
 20
898.0616582477137
 10
187.6010408393873
 20
897.7776629173206
 10
187.0738991811774
 20
897.5173188056772
 10
186.5330547825238
 20
897.2813414485752
 10
185.9792203032681
 20
897.0704463818026
 10
185.4131084032522
 20
896.8853491411501
 10
184.8354317423177
 20
896.726765262406
 10
184.2469029803064
 20
896.5954102813602
 10
183.64823477706
 20
896.4919997338021
 10
183.0401397924204
 20
896.4172491555215
 10
182.4233306862293
 20
896.3718740823072
 10
181.7985201183281
 20
896.3565900499495
 10
181.1752285301409
 20
896.3718740823072
 10
180.5598463733369
 20
896.4172491555215
 10
179.9530891837054
 20
896.4919997338021
 10
179.3556724970362
 20
896.5954102813602
 97
        0
 75
     0
 76
     1
 98
        1
 10
0.0
 20
0.0
  0
HATCH
  5
DD
330
1F
100
AcDbEntity
  8
0
  6
CONTINUOUS
 62
     4
100
AcDbHatch
 10
0.0
 20
0.0
 30
0.0
210
0.0
220
0.0
230
1.0
  2
SOLID
 70
     1
 71
     1
 91
        1
 92
        3
 72
     0
 73
     1
 93
      128
 10
199.5006171933256
 20
901.0992004711711
 10
199.1499614214151
 20
901.5638576597992
 10
198.8208102608873
 20
902.0450107092842
 10
198.5138792475317
 20
902.5419440838366
 10
198.2298839171378
 20
903.0539422476666
 10
197.9695398054949
 20
903.5802896649847
 10
197.7335624483926
 20
904.1202708000015
 10
197.5226673816203
 20
904.6731701169281
 10
197.3375701409674
 20
905.2382720799746
 10
197.1789862622234
 20
905.8148611533511
 10
197.0476312811777
 20
906.4022218012686
 10
196.9442207336197
 20
906.9996384879381
 10
196.8694701553391
 20
907.6063956775696
 10
196.8273190659444
 20
908.1780537811507
 10
204.3509907953076
 20
908.1780537811507
 10
204.3596060020444
 20
908.1083749982381
 10
204.4010392054665
 20
907.8698113972281
 10
204.4536635842002
 20
907.6352286830337
 10
204.5171901055006
 20
907.4049150256157
 10
204.5913297366234
 20
907.1791585949331
 10
204.6757934448241
 20
906.958247560947
 10
204.7702921973581
 20
906.7424700936182
 10
204.8745369614808
 20
906.5321143629055
 10
204.9882387044477
 20
906.3274685387701
 10
205.1111083935145
 20
906.1288207911721
 10
205.2428569959363
 20
905.9364592900716
 10
205.3831954789688
 20
905.7506722054292
 10
205.5318348098672
 20
905.5717477072036
 10
205.6884859558874
 20
905.399973965357
 10
205.8528598842846
 20
905.2356391498486
 10
206.0246675623142
 20
905.0790314306387
 10
206.203619957232
 20
904.9304389776881
 10
206.3894280362931
 20
904.7901499609561
 10
206.581802766753
 20
904.6584525504036
 10
206.7804551158675
 20
904.53563491599
 10
206.9850960508917
 20
904.421985227677
 10
207.1954365390812
 20
904.3177916554231
 10
207.4111875476915
 20
904.22334236919
 10
207.6320600439781
 20
904.1389255389365
 10
207.8577649951965
 20
904.0648293346246
 10
208.0880133686019
 20
904.0013419262126
 10
208.32251613145
 20
903.948751483662
 10
208.5609842509962
 20
903.9073461769326
 10
208.8031286944961
 20
903.8774141759851
 10
209.0486604292051
 20
903.8592436507787
 10
209.2972904223784
 20
903.8531227712741
 10
209.5474393952656
 20
903.8592436507787
 10
209.7943980793616
 20
903.8774141759851
 10
210.0378803178697
 20
903.9073461769326
 10
210.2775999539931
 20
903.948751483662
 10
210.5132708309347
 20
904.0013419262126
 10
210.744606791898
 20
904.0648293346246
 10
210.971321680086
 20
904.1389255389365
 10
211.1931293387018
 20
904.22334236919
 10
211.4097436109488
 20
904.3177916554231
 10
211.6208783400301
 20
904.421985227677
 10
211.8262473691487
 20
904.53563491599
 10
212.025564541508
 20
904.6584525504036
 10
212.218543700311
 20
904.7901499609561
 10
212.4048986887611
 20
904.9304389776881
 10
212.5843433500611
 20
905.0790314306387
 10
212.7565915274147
 20
905.2356391498486
 10
212.9213570640245
 20
905.399973965357
 10
213.0783538030942
 20
905.5717477072036
 10
213.2272955878265
 20
905.7506722054292
 10
213.3678962614249
 20
905.9364592900716
 10
213.4998696670926
 20
906.1288207911721
 10
213.6229296480324
 20
906.3274685387701
 10
213.7367900474479
 20
906.5321143629055
 10
213.841164708542
 20
906.7424700936182
 10
213.9357674745181
 20
906.958247560947
 10
214.020312188579
 20
907.1791585949331
 10
214.0945126939285
 20
907.4049150256157
 10
214.1580828337692
 20
907.6352286830337
 10
214.2107364513043
 20
907.8698113972281
 10
214.2521873897374
 20
908.1083749982381
 10
214.2608052159162
 20
908.1780537811507
 10
221.7844865498792
 20
908.1780537811507
 10
221.7423323436104
 20
907.6063956775696
 10
221.667572658162
 20
906.9996384879381
 10
221.5641443755932
 20
906.4022218012686
 10
221.4327601557459
 20
905.8148611533511
 10
221.2741326584617
 20
905.2382720799746
 10
221.0889745435823
 20
904.6731701169281
 10
220.8779984709496
 20
904.1202708000015
 10
220.6419171004052
 20
903.5802896649847
 10
220.3814430917909
 20
903.0539422476666
 10
220.0972891049485
 20
902.5419440838366
 10
219.7901677997196
 20
902.0450107092842
 10
219.4607918359461
 20
901.5638576597992
 10
219.1098738734697
 20
901.0992004711711
 10
218.738126572132
 20
900.6517546791881
 10
218.346262591775
 20
900.2222358196411
 10
217.9349945922403
 20
899.8113594283196
 10
217.5050352333695
 20
899.4198410410111
 10
217.0570971750046
 20
899.0483961935081
 10
216.5918930769872
 20
898.6977404215971
 10
216.110135599159
 20
898.3685892610697
 10
215.6125374013619
 20
898.0616582477137
 10
215.0998111434375
 20
897.7776629173206
 10
214.5726694852276
 20
897.5173188056772
 10
214.031825086574
 20
897.2813414485752
 10
213.4779906073183
 20
897.0704463818026
 10
212.9118787073024
 20
896.8853491411501
 10
212.3342020463679
 20
896.726765262406
 10
211.7456732843566
 20
896.5954102813602
 10
211.1470050811103
 20
896.4919997338021
 10
210.5389100964706
 20
896.4172491555215
 10
209.9221009902795
 20
896.3718740823072
 10
209.2972904223784
 20
896.3565900499495
 10
208.6739988341911
 20
896.3718740823072
 10
208.0586166773871
 20
896.4172491555215
 10
207.4518594877557
 20
896.4919997338021
 10
206.8544428010864
 20
896.5954102813602
 10
206.2670821531687
 20
896.726765262406
 10
205.6904930797921
 20
896.8853491411501
 10
205.1253911167457
 20
897.0704463818026
 10
204.5724917998195
 20
897.2813414485752
 10
204.0325106648024
 20
897.5173188056772
 10
203.5061632474843
 20
897.7776629173206
 10
202.9941650836543
 20
898.0616582477137
 10
202.4972317091021
 20
898.3685892610697
 10
202.016078659617
 20
898.6977404215971
 10
201.5514214709885
 20
899.0483961935081
 10
201.1039756790059
 20
899.4198410410111
 10
200.674456819459
 20
899.8113594283196
 10
200.263580428137
 20
900.2222358196411
 10
199.8720620408293
 20
900.6517546791881
 97
        0
 75
     0
 76
     1
 98
        1
 10
0.0
 20
0.0
  0
HATCH
  5
DE
330
1F
100
AcDbEntity
  8
0
  6
CONTINUOUS
 62
     4
100
AcDbHatch
 10
0.0
 20
0.0
 30
0.0
210
0.0
220
0.0
230
1.0
  2
SOLID
 70
     1
 71
     1
 91
        1
 92
        3
 72
     0
 73
     1
 93
      147
 10
204.3053437710919
 20
920.310354761057
 10
204.4221449229024
 20
920.3660666613837
 10
204.544630960545
 20
920.4210308153071
 10
204.6724602214319
 20
920.4751733109697
 10
204.8052910429759
 20
920.5284202365171
 10
204.942781762589
 20
920.5806976800926
 10
205.084590717684
 20
920.6319317298395
 10
205.2303762456731
 20
920.6820484739026
 10
205.3797966839689
 20
920.7309740004257
 10
205.5325103699836
 20
920.7786343975522
 10
205.6881756411299
 20
920.8249557534272
 10
205.84645083482
 20
920.8698641561926
 10
206.0069942884666
 20
920.9132856939946
 10
206.1694643394819
 20
920.9551464549755
 10
206.3335193252783
 20
920.9953725272811
 10
206.4988175832684
 20
921.0338899990526
 10
206.6650174508647
 20
921.0706249584362
 10
206.8317772654794
 20
921.1055034935746
 10
206.998755364525
 20
921.1384516926126
 10
207.1656100854142
 20
921.1693956436941
 10
207.3319997655589
 20
921.1982614349616
 10
207.4975827423721
 20
921.2249751545605
 10
207.6620173532658
 20
921.2494628906345
 10
207.8249619356529
 20
921.2716507313281
 10
207.9860748269452
 20
921.2914647647837
 10
208.1450143645556
 20
921.3088310791461
 10
208.3014388858965
 20
921.3236757625591
 10
208.4550067283802
 20
921.3359249031676
 10
208.6053762294191
 20
921.3455045891142
 10
208.7522057264258
 20
921.3523409085426
 10
208.8951535568126
 20
921.3563599495976
 10
209.033878057992
 20
921.3574878004241
 10
209.1680375673765
 20
921.3556505491637
 10
209.2972904223784
 20
921.3507742839615
 10
209.9221009902795
 20
921.3354897722792
 10
210.5389100964706
 20
921.2901113437931
 10
211.1470050811103
 20
921.2153516583442
 10
211.7456732843566
 20
921.1119233757756
 10
212.3342020463679
 20
920.9805391559287
 10
212.9118787073024
 20
920.8219116586446
 10
213.4779906073183
 20
920.6367535437647
 10
214.031825086574
 20
920.425777471132
 10
214.5726694852276
 20
920.1896961005875
 10
215.0998111434375
 20
919.9292220919735
 10
215.6125374013619
 20
919.6450681051306
 10
216.110135599159
 20
919.3379467999015
 10
216.5918930769872
 20
919.0085708361286
 10
217.0570971750046
 20
918.6576528736526
 10
217.5050352333695
 20
918.285905572314
 10
217.9349945922403
 20
917.8940415919576
 10
218.346262591775
 20
917.4827735924226
 10
218.738126572132
 20
917.0528142335515
 10
219.1098738734697
 20
916.6048761751871
 10
219.4607918359461
 20
916.1396720771696
 10
219.7901677997196
 20
915.6579145993416
 10
220.0972891049485
 20
915.160316401544
 10
220.3814430917909
 20
914.6475901436202
 10
220.6419171004052
 20
914.1204484854101
 10
220.8779984709496
 20
913.5796040867566
 10
221.0889745435823
 20
913.0257696075006
 10
221.2741326584617
 20
912.4596577074851
 10
221.4327601557459
 20
911.8819810465501
 10
221.5641443755932
 20
911.2934522845385
 10
221.667572658162
 20
910.6947840812927
 10
221.7423323436104
 20
910.0866890966531
 10
221.7877107720968
 20
909.4698799904615
 10
221.8029952837793
 20
908.8450694225606
 10
221.7877107720968
 20
908.2217778343736
 10
221.7844865498792
 20
908.1780537811507
 10
214.2608052159162
 20
908.1780537811507
 10
214.2821494922714
 20
908.3506313161041
 10
214.3003366021094
 20
908.5962921808647
 10
214.3064625624546
 20
908.8450694225606
 10
214.3003366021094
 20
909.0952183954477
 10
214.2821494922714
 20
909.3421770795442
 10
214.2521873897374
 20
909.5856593180521
 10
214.2107364513043
 20
909.825378954175
 10
214.1580828337692
 20
910.0610498311166
 10
214.0945126939285
 20
910.2923857920806
 10
214.020312188579
 20
910.5191006802687
 10
213.9357674745181
 20
910.7409083388842
 10
213.841164708542
 20
910.9575226111311
 10
213.7367900474479
 20
911.1686573402126
 10
213.6229296480324
 20
911.3740263693305
 10
213.4998696670926
 20
911.5733435416901
 10
213.3678962614249
 20
911.7663227004937
 10
213.2272955878265
 20
911.9526776889436
 10
213.0783538030942
 20
912.1321223502431
 10
212.9213570640245
 20
912.304370527597
 10
212.7565915274147
 20
912.4691360642066
 10
212.5843433500611
 20
912.626132803276
 10
212.4048986887611
 20
912.775074588009
 10
212.218543700311
 20
912.9156752616071
 10
212.025564541508
 20
913.0476486672746
 10
211.8262473691487
 20
913.1707086482146
 10
211.6208783400301
 20
913.2845690476305
 10
211.4097436109488
 20
913.388943708724
 10
211.1931293387018
 20
913.4835464747006
 10
210.971321680086
 20
913.5680911887616
 10
210.744606791898
 20
913.6422916941111
 10
210.5132708309347
 20
913.7058618339512
 10
210.2775999539931
 20
913.7585154514871
 10
210.0378803178697
 20
913.7999663899196
 10
209.7943980793616
 20
913.8299284924536
 10
209.5474393952656
 20
913.8481156022921
 10
209.2972904223784
 20
913.8542415626371
 10
209.0486604292051
 20
913.8481156022921
 10
208.8031286944961
 20
913.8299284924536
 10
208.5609842509962
 20
913.7999663899196
 10
208.32251613145
 20
913.7585154514871
 10
208.0880133686019
 20
913.7058618339512
 10
207.8577649951965
 20
913.6422916941111
 10
207.6320600439781
 20
913.5680911887616
 10
207.4111875476915
 20
913.4835464747006
 10
207.1954365390812
 20
913.388943708724
 10
206.9850960508917
 20
913.2845690476305
 10
206.7804551158675
 20
913.1707086482146
 10
206.581802766753
 20
913.0476486672746
 10
206.3894280362931
 20
912.9156752616071
 10
206.203619957232
 20
912.775074588009
 10
206.0246675623142
 20
912.626132803276
 10
205.8528598842846
 20
912.4691360642066
 10
205.6884859558874
 20
912.304370527597
 10
205.5318348098672
 20
912.1321223502431
 10
205.3831954789688
 20
911.9526776889436
 10
205.2428569959363
 20
911.7663227004937
 10
205.1111083935145
 20
911.5733435416901
 10
204.9882387044477
 20
911.3740263693305
 10
204.8745369614808
 20
911.1686573402126
 10
204.7702921973581
 20
910.9575226111311
 10
204.6757934448241
 20
910.7409083388842
 10
204.5913297366234
 20
910.5191006802687
 10
204.5171901055006
 20
910.2923857920806
 10
204.4536635842002
 20
910.0610498311166
 10
204.4010392054665
 20
909.825378954175
 10
204.3596060020444
 20
909.5856593180521
 10
204.3296530066782
 20
909.3421770795442
 10
204.3114692521126
 20
909.0952183954477
 10
204.3053437710919
 20
908.8450694225606
 10
204.3114692521126
 20
908.5962921808647
 10
204.3296530066782
 20
908.3506313161041
 10
204.3509907953076
 20
908.1780537811507
 10
196.8273190659444
 20
908.1780537811507
 10
196.8240950821252
 20
908.2217778343736
 10
196.8088110497672
 20
908.8450694225606
 10
196.8088110497672
 20
923.8381348652101
 10
204.3053437710919
 20
923.8381348652101
 97
        0
 75
     0
 76
     1
 98
        1
 10
0.0
 20
0.0
  0
HATCH
  5
DF
330
1F
100
AcDbEntity
  8
0
  6
CONTINUOUS
 62
     4
100
AcDbHatch
 10
0.0
 20
0.0
 30
0.0
210
0.0
220
0.0
230
1.0
  2
SOLID
 70
     1
 71
     1
 91
        1
 92
        3
 72
     0
 73
     1
 93
      144
 10
224.3278118471013
 20
908.1780537811507
 10
224.3245878871217
 20
908.2217778343736
 10
224.3093039026963
 20
908.8450694225606
 10
224.3245878871217
 20
909.4698799904615
 10
224.3699626248086
 20
910.0866890966531
 10
224.4447122923724
 20
910.6947840812927
 10
224.5481210664292
 20
911.2934522845385
 10
224.6794731235948
 20
911.8819810465501
 10
224.8380526404848
 20
912.4596577074851
 10
225.023143793715
 20
913.0257696075006
 10
225.2340307599013
 20
913.5796040867566
 10
225.4699977156594
 20
914.1204484854101
 10
225.7303288376052
 20
914.6475901436202
 10
226.0143083023542
 20
915.160316401544
 10
226.3212202865225
 20
915.6579145993416
 10
226.6503489667257
 20
916.1396720771696
 10
227.0009785195796
 20
916.6048761751871
 10
227.3723931216999
 20
917.0528142335515
 10
227.7638769497027
 20
917.4827735924226
 10
228.1747141802035
 20
917.8940415919576
 10
228.604188989818
 20
918.285905572314
 10
229.0515855551623
 20
918.6576528736526
 10
229.5161880528518
 20
919.0085708361286
 10
229.9972806595026
 20
919.3379467999015
 10
230.4941475517304
 20
919.6450681051306
 10
231.0060729061509
 20
919.9292220919735
 10
231.53234089938
 20
920.1896961005875
 10
232.0722357080333
 20
920.425777471132
 10
232.6250415087266
 20
920.6367535437647
 10
233.190042478076
 20
920.8219116586446
 10
233.7665227926969
 20
920.9805391559287
 10
234.3537666292052
 20
921.1119233757756
 10
234.9510581642168
 20
921.2153516583442
 10
235.5576815743474
 20
921.2901113437931
 10
236.1729210362127
 20
921.3354897722792
 10
236.7960607264285
 20
921.3507742839615
 10
237.4194034585526
 20
921.3354897722792
 10
238.0349348291101
 20
921.2901113437931
 10
238.6419329752268
 20
921.2153516583442
 10
239.2396760340283
 20
921.1119233757756
 10
239.8274421426402
 20
920.9805391559287
 10
240.4045094381882
 20
920.8219116586446
 10
240.9701560577975
 20
920.6367535437647
 10
241.5236601385942
 20
920.425777471132
 10
242.0642998177036
 20
920.1896961005875
 10
242.5913532322514
 20
919.9292220919735
 10
243.104098519363
 20
919.6450681051306
 10
243.6018138161643
 20
919.3379467999015
 10
244.0837772597807
 20
919.0085708361286
 10
244.5492669873379
 20
918.6576528736526
 10
244.9975611359613
 20
918.285905572314
 10
245.4279378427767
 20
917.8940415919576
 10
245.8396752449098
 20
917.4827735924226
 10
246.2320514794858
 20
917.0528142335515
 10
246.6043446836308
 20
916.6048761751871
 10
246.9558329944698
 20
916.1396720771696
 10
247.2857945491289
 20
915.6579145993416
 10
247.5935074847335
 20
915.160316401544
 10
247.8782499384093
 20
914.6475901436202
 10
248.1393000472816
 20
914.1204484854101
 10
248.3759359484764
 20
913.5796040867566
 10
248.5874357791189
 20
913.0257696075006
 10
248.7730776763351
 20
912.4596577074851
 10
248.9321397772503
 20
911.8819810465501
 10
249.0639002189901
 20
911.2934522845385
 10
249.1676371386803
 20
910.6947840812927
 10
249.2426286734464
 20
910.0866890966531
 10
249.2881529604139
 20
909.4698799904615
 10
249.3034881367085
 20
908.8450694225606
 10
249.2881529604139
 20
908.2217778343736
 10
249.2849183746784
 20
908.1780537811507
 10
241.7612970366129
 20
908.1780537811507
 10
241.7826419617408
 20
908.3506313161041
 10
241.8008294071061
 20
908.5962921808647
 10
241.8069554153838
 20
908.8450694225606
 10
241.8008294071061
 20
909.0952183954477
 10
241.7826419617408
 20
909.3421770795442
 10
241.75267894849
 20
909.5856593180521
 10
241.711226236556
 20
909.825378954175
 10
241.6585696951406
 20
910.0610498311166
 10
241.5949951934458
 20
910.2923857920806
 10
241.5207886006738
 20
910.5191006802687
 10
241.4362357860267
 20
910.7409083388842
 10
241.3416226187066
 20
910.9575226111311
 10
241.2372349679152
 20
911.1686573402126
 10
241.1233587028549
 20
911.3740263693305
 10
241.0002796927278
 20
911.5733435416901
 10
240.8682838067355
 20
911.7663227004937
 10
240.7276569140806
 20
911.9526776889436
 10
240.5786848839647
 20
912.1321223502431
 10
240.4216535855902
 20
912.304370527597
 10
240.2568488881591
 20
912.4691360642066
 10
240.0845566608732
 20
912.626132803276
 10
239.9050627729349
 20
912.775074588009
 10
239.718653093546
 20
912.9156752616071
 10
239.5256134919086
 20
913.0476486672746
 10
239.3262298372249
 20
913.1707086482146
 10
239.1207879986968
 20
913.2845690476305
 10
238.9095738455264
 20
913.388943708724
 10
238.6928732469158
 20
913.4835464747006
 10
238.4709720720668
 20
913.5680911887616
 10
238.2441561901819
 20
913.6422916941111
 10
238.012711470463
 20
913.7058618339512
 10
237.7769237821119
 20
913.7585154514871
 10
237.5370789943308
 20
913.7999663899196
 10
237.293462976322
 20
913.8299284924536
 10
237.0463615972871
 20
913.8481156022921
 10
236.7960607264285
 20
913.8542415626371
 10
236.547435382704
 20
913.8481156022921
 10
236.3019172128818
 20
913.8299284924536
 10
236.0597946745169
 20
913.7999663899196
 10
235.8213562251645
 20
913.7585154514871
 10
235.5868903223795
 20
913.7058618339512
 10
235.356685423717
 20
913.6422916941111
 10
235.1310299867316
 20
913.5680911887616
 10
234.9102124689788
 20
913.4835464747006
 10
234.6945213280131
 20
913.388943708724
 10
234.48424502139
 20
913.2845690476305
 10
234.279672006664
 20
913.1707086482146
 10
234.0810907413905
 20
913.0476486672746
 10
233.8887896831243
 20
912.9156752616071
 10
233.7030572894203
 20
912.775074588009
 10
233.5241820178337
 20
912.626132803276
 10
233.3524523259193
 20
912.4691360642066
 10
233.1881566712322
 20
912.304370527597
 10
233.0315835113273
 20
912.1321223502431
 10
232.8830213037599
 20
911.9526776889436
 10
232.7427585060845
 20
911.7663227004937
 10
232.6110835758564
 20
911.5733435416901
 10
232.4882849706306
 20
911.3740263693305
 10
232.3746511479621
 20
911.1686573402126
 10
232.2704705654056
 20
910.9575226111311
 10
232.1760316805164
 20
910.7409083388842
 10
232.0916229508494
 20
910.5191006802687
 10
232.0175328339596
 20
910.2923857920806
 10
231.954049787402
 20
910.0610498311166
 10
231.9014622687314
 20
909.825378954175
 10
231.8600587355031
 20
909.5856593180521
 10
231.8301276452721
 20
909.3421770795442
 10
231.811957455593
 20
909.0952183954477
 10
231.805836624021
 20
908.8450694225606
 10
231.811957455593
 20
908.5962921808647
 10
231.8301276452721
 20
908.3506313161041
 10
231.8514498292136
 20
908.1780537811507
 97
        0
 75
     0
 76
     1
 98
        1
 10
0.0
 20
0.0
  0
HATCH
  5
E0
330
1F
100
AcDbEntity
  8
0
  6
CONTINUOUS
 62
     4
100
AcDbHatch
 10
0.0
 20
0.0
 30
0.0
210
0.0
220
0.0
230
1.0
  2
SOLID
 70
     1
 71
     1
 91
        1
 92
        3
 72
     0
 73
     1
 93
      128
 10
229.9972806595026
 20
898.3685892610697
 10
229.5161880528518
 20
898.6977404215971
 10
229.0515855551623
 20
899.0483961935081
 10
228.604188989818
 20
899.4198410410111
 10
228.1747141802035
 20
899.8113594283196
 10
227.7638769497027
 20
900.2222358196411
 10
227.3723931216999
 20
900.6517546791881
 10
227.0009785195796
 20
901.0992004711711
 10
226.6503489667257
 20
901.5638576597992
 10
226.3212202865225
 20
902.0450107092842
 10
226.0143083023542
 20
902.5419440838366
 10
225.7303288376052
 20
903.0539422476666
 10
225.4699977156594
 20
903.5802896649847
 10
225.2340307599013
 20
904.1202708000015
 10
225.023143793715
 20
904.6731701169281
 10
224.8380526404848
 20
905.2382720799746
 10
224.6794731235948
 20
905.8148611533511
 10
224.5481210664292
 20
906.4022218012686
 10
224.4447122923724
 20
906.9996384879381
 10
224.3699626248086
 20
907.6063956775696
 10
224.3278118471013
 20
908.1780537811507
 10
231.8514498292136
 20
908.1780537811507
 10
231.8600587355031
 20
908.1083749982381
 10
231.9014622687314
 20
907.8698113972281
 10
231.954049787402
 20
907.6352286830337
 10
232.0175328339596
 20
907.4049150256157
 10
232.0916229508494
 20
907.1791585949331
 10
232.1760316805164
 20
906.958247560947
 10
232.2704705654056
 20
906.7424700936182
 10
232.3746511479621
 20
906.5321143629055
 10
232.4882849706306
 20
906.3274685387701
 10
232.6110835758564
 20
906.1288207911721
 10
232.7427585060845
 20
905.9364592900716
 10
232.8830213037599
 20
905.7506722054292
 10
233.0315835113273
 20
905.5717477072036
 10
233.1881566712322
 20
905.399973965357
 10
233.3524523259193
 20
905.2356391498486
 10
233.5241820178337
 20
905.0790314306387
 10
233.7030572894203
 20
904.9304389776881
 10
233.8887896831243
 20
904.7901499609561
 10
234.0810907413905
 20
904.6584525504036
 10
234.279672006664
 20
904.53563491599
 10
234.48424502139
 20
904.421985227677
 10
234.6945213280131
 20
904.3177916554231
 10
234.9102124689788
 20
904.22334236919
 10
235.1310299867316
 20
904.1389255389365
 10
235.356685423717
 20
904.0648293346246
 10
235.5868903223795
 20
904.0013419262126
 10
235.8213562251645
 20
903.948751483662
 10
236.0597946745169
 20
903.9073461769326
 10
236.3019172128818
 20
903.8774141759851
 10
236.547435382704
 20
903.8592436507787
 10
236.7960607264285
 20
903.8531227712741
 10
237.0463615972871
 20
903.8592436507787
 10
237.293462976322
 20
903.8774141759851
 10
237.5370789943308
 20
903.9073461769326
 10
237.7769237821119
 20
903.948751483662
 10
238.012711470463
 20
904.0013419262126
 10
238.2441561901819
 20
904.0648293346246
 10
238.4709720720668
 20
904.1389255389365
 10
238.6928732469158
 20
904.22334236919
 10
238.9095738455264
 20
904.3177916554231
 10
239.1207879986968
 20
904.421985227677
 10
239.3262298372249
 20
904.53563491599
 10
239.5256134919086
 20
904.6584525504036
 10
239.718653093546
 20
904.7901499609561
 10
239.9050627729349
 20
904.9304389776881
 10
240.0845566608732
 20
905.0790314306387
 10
240.2568488881591
 20
905.2356391498486
 10
240.4216535855902
 20
905.399973965357
 10
240.5786848839647
 20
905.5717477072036
 10
240.7276569140806
 20
905.7506722054292
 10
240.8682838067355
 20
905.9364592900716
 10
241.0002796927278
 20
906.1288207911721
 10
241.1233587028549
 20
906.3274685387701
 10
241.2372349679152
 20
906.5321143629055
 10
241.3416226187066
 20
906.7424700936182
 10
241.4362357860267
 20
906.958247560947
 10
241.5207886006738
 20
907.1791585949331
 10
241.5949951934458
 20
907.4049150256157
 10
241.6585696951406
 20
907.6352286830337
 10
241.711226236556
 20
907.8698113972281
 10
241.75267894849
 20
908.1083749982381
 10
241.7612970366129
 20
908.1780537811507
 10
249.2849183746784
 20
908.1780537811507
 10
249.2426286734464
 20
907.6063956775696
 10
249.1676371386803
 20
906.9996384879381
 10
249.0639002189901
 20
906.4022218012686
 10
248.9321397772503
 20
905.8148611533511
 10
248.7730776763351
 20
905.2382720799746
 10
248.5874357791189
 20
904.6731701169281
 10
248.3759359484764
 20
904.1202708000015
 10
248.1393000472816
 20
903.5802896649847
 10
247.8782499384093
 20
903.0539422476666
 10
247.5935074847335
 20
902.5419440838366
 10
247.2857945491289
 20
902.0450107092842
 10
246.9558329944698
 20
901.5638576597992
 10
246.6043446836308
 20
901.0992004711711
 10
246.2320514794858
 20
900.6517546791881
 10
245.8396752449098
 20
900.2222358196411
 10
245.4279378427767
 20
899.8113594283196
 10
244.9975611359613
 20
899.4198410410111
 10
244.5492669873379
 20
899.0483961935081
 10
244.0837772597807
 20
898.6977404215971
 10
243.6018138161643
 20
898.3685892610697
 10
243.104098519363
 20
898.0616582477137
 10
242.5913532322514
 20
897.7776629173206
 10
242.0642998177036
 20
897.5173188056772
 10
241.5236601385942
 20
897.2813414485752
 10
240.9701560577975
 20
897.0704463818026
 10
240.4045094381882
 20
896.8853491411501
 10
239.8274421426402
 20
896.726765262406
 10
239.2396760340283
 20
896.5954102813602
 10
238.6419329752268
 20
896.4919997338021
 10
238.0349348291101
 20
896.4172491555215
 10
237.4194034585526
 20
896.3718740823072
 10
236.7960607264285
 20
896.3565900499495
 10
236.1729210362127
 20
896.3718740823072
 10
235.5576815743474
 20
896.4172491555215
 10
234.9510581642168
 20
896.4919997338021
 10
234.3537666292052
 20
896.5954102813602
 10
233.7665227926969
 20
896.726765262406
 10
233.190042478076
 20
896.8853491411501
 10
232.6250415087266
 20
897.0704463818026
 10
232.0722357080333
 20
897.2813414485752
 10
231.53234089938
 20
897.5173188056772
 10
231.0060729061509
 20
897.7776629173206
 10
230.4941475517304
 20
898.0616582477137
 97
        0
 75
     0
 76
     1
 98
        1
 10
0.0
 20
0.0
  0
HATCH
  5
E1
330
1F
100
AcDbEntity
  8
0
  6
CONTINUOUS
 62
     4
100
AcDbHatch
 10
0.0
 20
0.0
 30
0.0
210
0.0
220
0.0
230
1.0
  2
SOLID
 70
     1
 71
     1
 91
        1
 92
        3
 72
     0
 73
     1
 93
       72
 10
259.3046069280712
 20
896.3565900499495
 10
251.7891261690778
 20
896.3565900499495
 10
251.7891261690778
 20
908.8278439337711
 10
251.8044613453725
 20
909.4526545016721
 10
251.84998563234
 20
910.0694636078631
 10
251.924977167106
 20
910.6775585925027
 10
252.0287140867962
 20
911.276226795749
 10
252.1604745285361
 20
911.8647555577606
 10
252.3195366294512
 20
912.4424322186951
 10
252.5051785266673
 20
913.0085441187106
 10
252.7166783573099
 20
913.5623785979666
 10
252.9533142585046
 20
914.10322299662
 10
253.2143643673772
 20
914.6303646548301
 10
253.4991068210527
 20
915.143090912754
 10
253.8068197566573
 20
915.6406891105515
 10
254.1367813113164
 20
916.1224465883796
 10
254.4882696221557
 20
916.5876506863971
 10
254.8605628263004
 20
917.0355887447621
 10
255.2529390608764
 20
917.4655481036326
 10
255.6646764630095
 20
917.8768161031676
 10
256.0950531698248
 20
918.2686800835246
 10
256.5433473184484
 20
918.6404273848626
 10
257.0088370460056
 20
918.9913453473386
 10
257.4908004896218
 20
919.320721311112
 10
257.9885157864232
 20
919.6278426163411
 10
258.5012610735349
 20
919.9119966031835
 10
259.0283144880827
 20
920.1724706117981
 10
259.5689541671921
 20
920.408551982342
 10
260.1224582479886
 20
920.619528054975
 10
260.6881048675983
 20
920.8046861698547
 10
261.2651721631461
 20
920.9633136671387
 10
261.8529382717579
 20
921.0946978869862
 10
262.4506813305595
 20
921.1981261695547
 10
263.0576794766762
 20
921.2728858550031
 10
263.6732108472337
 20
921.3182642834895
 10
264.2965535793577
 20
921.3335487951721
 10
266.8011396493959
 20
921.3335487951721
 10
266.8011396493959
 20
913.837016073847
 10
264.2965535793577
 20
913.837016073847
 10
264.0463038524359
 20
913.830890113502
 10
263.7993516871546
 20
913.8127030036641
 10
263.555976625631
 20
913.7827409011301
 10
263.3164582099822
 20
913.7412899626971
 10
263.0810759823254
 20
913.6886363451615
 10
262.8501094847776
 20
913.6250662053211
 10
262.6238382594557
 20
913.5508656999716
 10
262.4025418484772
 20
913.4663209859106
 10
262.1864997939589
 20
913.3717182199346
 10
261.9759916380181
 20
913.2673435588407
 10
261.7712969227717
 20
913.1534831594252
 10
261.572695190337
 20
913.0304231784851
 10
261.380465982831
 20
912.8984497728176
 10
261.1948888423709
 20
912.757849099219
 10
261.0162433110734
 20
912.6089073144866
 10
260.8448089310561
 20
912.4519105754172
 10
260.6808652444358
 20
912.287145038807
 10
260.5246917933298
 20
912.1148968614536
 10
260.3765681198551
 20
911.935452200154
 10
260.2367737661287
 20
911.7490972117037
 10
260.1055882742679
 20
911.5561180529006
 10
259.9832911863896
 20
911.3568008805411
 10
259.8701620446112
 20
911.1514318514226
 10
259.7664803910494
 20
910.9402971223411
 10
259.6725257678215
 20
910.7236828500942
 10
259.5885777170448
 20
910.5018751914787
 10
259.5149157808361
 20
910.275160303291
 10
259.4518195013125
 20
910.0438243423271
 10
259.3995684205912
 20
909.8081534653861
 10
259.3584420807894
 20
909.5684338292621
 10
259.3287200240241
 20
909.3249515907545
 10
259.3106817924123
 20
909.0779929066582
 10
259.3046069280712
 20
908.8278439337711
 97
        0
 75
     0
 76
     1
 98
        1
 10
0.0
 20
0.0
  0
HATCH
  5
E2
330
1F
100
AcDbEntity
  8
0
  6
CONTINUOUS
 62
     4
100
AcDbHatch
 10
0.0
 20
0.0
 30
0.0
210
0.0
220
0.0
230
1.0
  2
SOLID
 70
     1
 71
     1
 91
        1
 92
        3
 72
     0
 73
     1
 93
      107
 10
272.3591927363976
 20
900.6517546791881
 10
271.9869766555838
 20
901.0992004711711
 10
271.6355640301018
 20
901.5638576597992
 10
271.3056761476365
 20
902.0450107092842
 10
270.9980342958727
 20
902.5419440838366
 10
270.7133597624954
 20
903.0539422476666
 10
270.4523738351893
 20
903.5802896649847
 10
270.2157978016394
 20
904.1202708000015
 10
270.0043529495305
 20
904.6731701169281
 10
269.8187605665474
 20
905.2382720799746
 10
269.659741940375
 20
905.8148611533511
 10
269.5280183586982
 20
906.4022218012686
 10
269.4243111092018
 20
906.9996384879381
 10
269.3493414795709
 20
907.6063956775696
 10
269.3038307574901
 20
908.2217778343736
 10
269.2885002306442
 20
908.8450694225606
 10
269.2885002306442
 20
921.3335487951721
 10
276.7850329519689
 20
921.3335487951721
 10
276.7850329519689
 20
908.8450694225606
 10
276.7911543107978
 20
908.5962921808647
 10
276.8093281912765
 20
908.3506313161041
 10
276.8392692993921
 20
908.1083749982381
 10
276.8806923411323
 20
907.8698113972281
 10
276.9333120224848
 20
907.6352286830337
 10
276.9968430494366
 20
907.4049150256157
 10
277.0710001279754
 20
907.1791585949331
 10
277.1554979640889
 20
906.958247560947
 10
277.2500512637644
 20
906.7424700936182
 10
277.3543747329894
 20
906.5321143629055
 10
277.4681830777513
 20
906.3274685387701
 10
277.5911910040378
 20
906.1288207911721
 10
277.7231132178362
 20
905.9364592900716
 10
277.863664425134
 20
905.7506722054292
 10
278.0125593319187
 20
905.5717477072036
 10
278.1695126441779
 20
905.399973965357
 10
278.334239067899
 20
905.2356391498486
 10
278.5064533090695
 20
905.0790314306387
 10
278.685870073677
 20
904.9304389776881
 10
278.8722040677087
 20
904.7901499609561
 10
279.0651699971523
 20
904.6584525504036
 10
279.2644825679951
 20
904.53563491599
 10
279.469856486225
 20
904.421985227677
 10
279.681006457829
 20
904.3177916554231
 10
279.8976471887948
 20
904.22334236919
 10
280.11949338511
 20
904.1389255389365
 10
280.346259752762
 20
904.0648293346246
 10
280.5776609977383
 20
904.0013419262126
 10
280.8134118260261
 20
903.948751483662
 10
281.0532269436133
 20
903.9073461769326
 10
281.2968210564874
 20
903.8774141759851
 10
281.5439088706353
 20
903.8592436507787
 10
281.794205092045
 20
903.8531227712741
 10
284.2987911620833
 20
903.8531227712741
 10
284.2987911620833
 20
921.3335487951721
 10
291.7953238834079
 20
921.3335487951721
 10
291.7953238834079
 20
898.8611761199877
 10
291.792235546963
 20
898.7352917666701
 10
291.7830688950397
 20
898.6111022093361
 10
291.7679714637555
 20
898.4887457810695
 10
291.7470907892278
 20
898.3683608149571
 10
291.7205744075738
 20
898.2500856440817
 10
291.688569854911
 20
898.1340586015291
 10
291.6512246673566
 20
898.0204180203825
 10
291.6086863810281
 20
897.909302233729
 10
291.5611025320429
 20
897.8008495746516
 10
291.5086206565182
 20
897.6951983762356
 10
291.4513882905712
 20
897.592486971565
 10
291.3895529703199
 20
897.4928536937251
 10
291.3232622318811
 20
897.3964368758006
 10
291.2526636113722
 20
897.3033748508766
 10
291.1779046449107
 20
897.2138059520361
 10
291.0991328686139
 20
897.1278685123656
 10
291.0164958185992
 20
897.0457008649496
 10
290.9301410309839
 20
896.9674413428711
 10
290.8402160418855
 20
896.8932282792176
 10
290.7468683874211
 20
896.823200007071
 10
290.6502456037083
 20
896.7574948595177
 10
290.5504952268644
 20
896.6962511696416
 10
290.4477647930068
 20
896.6396072705286
 10
290.3422018382525
 20
896.5877014952616
 10
290.2339538987194
 20
896.5406721769267
 10
290.1231685105245
 20
896.4986576486082
 10
290.0099932097854
 20
896.4617962433911
 10
289.8945755326191
 20
896.4302262943592
 10
289.7770630151432
 20
896.4040861345976
 10
289.6576031934751
 20
896.3835140971906
 10
289.5363436037321
 20
896.3686485152245
 10
289.4134317820316
 20
896.3596277217825
 10
289.2890152644908
 20
896.3565900499495
 10
281.794205092045
 20
896.3565900499495
 10
281.17086700937
 20
896.3718740823072
 10
280.5553492036991
 20
896.4172491555215
 10
279.9483729627174
 20
896.4919997338021
 10
279.3506595741097
 20
896.5954102813602
 10
278.7629303255609
 20
896.726765262406
 10
278.1859065047558
 20
896.8853491411501
 10
277.6203093993794
 20
897.0704463818026
 10
277.0668602971165
 20
897.2813414485752
 10
276.5262804856518
 20
897.5173188056772
 10
275.9992912526704
 20
897.7776629173206
 10
275.486613885857
 20
898.0616582477137
 10
274.9889696728966
 20
898.3685892610697
 10
274.507079901474
 20
898.6977404215971
 10
274.041665859274
 20
899.0483961935081
 10
273.5934488339814
 20
899.4198410410111
 10
273.1631501132813
 20
899.8113594283196
 10
272.7514909848585
 20
900.2222358196411
 97
        0
 75
     0
 76
     1
 98
        1
 10
0.0
 20
0.0
  0
SPLINE
  5
E3
330
1F
100
AcDbEntity
  8
0
  6
CONTINUOUS
 62
     4
100
AcDbSpline
210
0.0
220
0.0
230
1.0
 70
     8
 71
     3
 72
     8
 73
     4
 74
     0
 42
0.000000001
 43
0.00000001
 40
0.0
 40
0.0
 40
0.0
 40
0.0
 40
1.0
 40
1.0
 40
1.0
 40
1.0
 10
106.8151061418527
 20
928.600982515592
 30
0.0
 10
102.6697922645853
 20
928.600982515592
 30
0.0
 10
99.31857342052804
 20
925.2489023970952
 30
0.0
 10
99.31857342052804
 20
921.1044497942671
 30
0.0
  0
SPLINE
  5
E4
330
1F
100
AcDbEntity
  8
0
  6
CONTINUOUS
 62
     4
100
AcDbSpline
210
0.0
220
0.0
230
1.0
 70
     8
 71
     3
 72
     8
 73
     4
 74
     0
 42
0.000000001
 43
0.00000001
 40
0.0
 40
0.0
 40
0.0
 40
0.0
 40
1.0
 40
1.0
 40
1.0
 40
1.0
 10
114.3116388631773
 20
921.1044497942671
 30
0.0
 10
114.3116388631773
 20
925.2489023970952
 30
0.0
 10
110.9604200191201
 20
928.600982515592
 30
0.0
 10
106.8151061418527
 20
928.600982515592
 30
0.0
  0
POLYLINE
  5
E5
330
1F
100
AcDbEntity
  8
0
  6
CONTINUOUS
 62
     4
100
AcDb2dPolyline
 66
     1
 10
0.0
 20
0.0
 30
0.0
 70
   128
  0
VERTEX
  5
E6
330
E5
100
AcDbEntity
  8
0
  6
CONTINUOUS
 62
     4
100
AcDbVertex
100
AcDb2dVertex
 10
89.3174546291652
 20
933.610154655668
 30
0.0
  0
VERTEX
  5
E7
330
E5
100
AcDbEntity
  8
0
  6
CONTINUOUS
 62
     4
100
AcDbVertex
100
AcDb2dVertex
 10
89.3174546291652
 20
908.6159704216561
 30
0.0
  0
SEQEND
  5
E8
330
E5
100
AcDbEntity
  8
0
  6
CONTINUOUS
 62
     4
  0
SPLINE
  5
E9
330
1F
100
AcDbEntity
  8
0
  6
CONTINUOUS
 62
     4
100
AcDbSpline
210
0.0
220
0.0
230
1.0
 70
     8
 71
     3
 72
     8
 73
     4
 74
     0
 42
0.000000001
 43
0.00000001
 40
0.0
 40
0.0
 40
0.0
 40
0.0
 40
1.0
 40
1.0
 40
1.0
 40
1.0
 10
101.8231594905662
 20
946.0986340282797
 30
0.0
 10
94.9088482903371
 20
946.0986340282797
 30
0.0
 10
89.3174546291652
 20
940.5072403671076
 30
0.0
 10
89.3174546291652
 20
933.610154655668
 30
0.0
  0
POLYLINE
  5
EA
330
1F
100
AcDbEntity
  8
0
  6
CONTINUOUS
 62
     4
100
AcDb2dPolyline
 66
     1
 10
0.0
 20
0.0
 30
0.0
 70
   128
  0
VERTEX
  5
EB
330
EA
100
AcDbEntity
  8
0
  6
CONTINUOUS
 62
     4
100
AcDbVertex
100
AcDb2dVertex
 10
101.8231594905662
 20
946.0986340282797
 30
0.0
  0
VERTEX
  5
EC
330
EA
100
AcDbEntity
  8
0
  6
CONTINUOUS
 62
     4
100
AcDbVertex
100
AcDb2dVertex
 10
126.8182049990177
 20
946.0986340282797
 30
0.0
  0
SEQEND
  5
ED
330
EA
100
AcDbEntity
  8
0
  6
CONTINUOUS
 62
     4
  0
POLYLINE
  5
EE
330
1F
100
AcDbEntity
  8
0
  6
CONTINUOUS
 62
     4
100
AcDb2dPolyline
 66
     1
 10
0.0
 20
0.0
 30
0.0
 70
   128
  0
VERTEX
  5
EF
330
EE
100
AcDbEntity
  8
0
  6
CONTINUOUS
 62
     4
100
AcDbVertex
100
AcDb2dVertex
 10
139.3058230971893
 20
933.610154655668
 30
0.0
  0
VERTEX
  5
F0
330
EE
100
AcDbEntity
  8
0
  6
CONTINUOUS
 62
     4
100
AcDbVertex
100
AcDb2dVertex
 10
139.3058230971893
 20
908.6159704216561
 30
0.0
  0
SEQEND
  5
F1
330
EE
100
AcDbEntity
  8
0
  6
CONTINUOUS
 62
     4
  0
SPLINE
  5
F2
330
1F
100
AcDbEntity
  8
0
  6
CONTINUOUS
 62
     4
100
AcDbSpline
210
0.0
220
0.0
230
1.0
 70
     8
 71
     3
 72
     8
 73
     4
 74
     0
 42
0.000000001
 43
0.00000001
 40
0.0
 40
0.0
 40
0.0
 40
0.0
 40
1.0
 40
1.0
 40
1.0
 40
1.0
 10
139.3058230971893
 20
933.610154655668
 30
0.0
 10
139.3058230971893
 20
940.5072403671076
 30
0.0
 10
133.7144294360174
 20
946.0986340282797
 30
0.0
 10
126.8182049990177
 20
946.0986340282797
 30
0.0
  0
SPLINE
  5
F3
330
1F
100
AcDbEntity
  8
0
  6
CONTINUOUS
 62
     4
100
AcDbSpline
210
0.0
220
0.0
230
1.0
 70
     8
 71
     3
 72
     8
 73
     4
 74
     0
 42
0.000000001
 43
0.00000001
 40
0.0
 40
0.0
 40
0.0
 40
0.0
 40
1.0
 40
1.0
 40
1.0
 40
1.0
 10
129.3227910690558
 20
923.6090358643056
 30
0.0
 10
129.3227910690558
 20
930.5061215757452
 30
0.0
 10
123.7133106446547
 20
936.1147407257065
 30
0.0
 10
116.8162249332154
 20
936.1147407257065
 30
0.0
  0
POLYLINE
  5
F4
330
1F
100
AcDbEntity
  8
0
  6
CONTINUOUS
 62
     4
100
AcDb2dPolyline
 66
     1
 10
0.0
 20
0.0
 30
0.0
 70
   128
  0
VERTEX
  5
F5
330
F4
100
AcDbEntity
  8
0
  6
CONTINUOUS
 62
     4
100
AcDbVertex
100
AcDb2dVertex
 10
106.8151061418527
 20
936.1147407257065
 30
0.0
  0
VERTEX
  5
F6
330
F4
100
AcDbEntity
  8
0
  6
CONTINUOUS
 62
     4
100
AcDbVertex
100
AcDb2dVertex
 10
116.8162249332154
 20
936.1147407257065
 30
0.0
  0
SEQEND
  5
F7
330
F4
100
AcDbEntity
  8
0
  6
CONTINUOUS
 62
     4
  0
SPLINE
  5
F8
330
1F
100
AcDbEntity
  8
0
  6
CONTINUOUS
 62
     4
100
AcDbSpline
210
0.0
220
0.0
230
1.0
 70
     8
 71
     3
 72
     8
 73
     4
 74
     0
 42
0.000000001
 43
0.00000001
 40
0.0
 40
0.0
 40
0.0
 40
0.0
 40
1.0
 40
1.0
 40
1.0
 40
1.0
 10
106.8151061418527
 20
936.1147407257065
 30
0.0
 10
99.9188817048529
 20
936.1147407257065
 30
0.0
 10
94.32662676924149
 20
930.5061215757452
 30
0.0
 10
94.32662676924149
 20
923.6090358643056
 30
0.0
  0
SPLINE
  5
F9
330
1F
100
AcDbEntity
  8
0
  6
CONTINUOUS
 62
     4
100
AcDbSpline
210
0.0
220
0.0
230
1.0
 70
     8
 71
     3
 72
     8
 73
     4
 74
     0
 42
0.000000001
 43
0.00000001
 40
0.0
 40
0.0
 40
0.0
 40
0.0
 40
1.0
 40
1.0
 40
1.0
 40
1.0
 10
99.31857342052804
 20
896.373815538739
 30
0.0
 10
99.954193956872
 20
896.2153410418731
 30
0.0
 10
101.1711747398719
 20
896.0913175225866
 30
0.0
 10
101.8231594905662
 20
896.1102655602556
 30
0.0
  0
POLYLINE
  5
FA
330
1F
100
AcDbEntity
  8
0
  6
CONTINUOUS
 62
     4
100
AcDb2dPolyline
 66
     1
 10
0.0
 20
0.0
 30
0.0
 70
   128
  0
VERTEX
  5
FB
330
FA
100
AcDbEntity
  8
0
  6
CONTINUOUS
 62
     4
100
AcDbVertex
100
AcDb2dVertex
 10
99.31857342052804
 20
921.1044497942671
 30
0.0
  0
VERTEX
  5
FC
330
FA
100
AcDbEntity
  8
0
  6
CONTINUOUS
 62
     4
100
AcDbVertex
100
AcDb2dVertex
 10
99.31857342052804
 20
896.373815538739
 30
0.0
  0
SEQEND
  5
FD
330
FA
100
AcDbEntity
  8
0
  6
CONTINUOUS
 62
     4
  0
POLYLINE
  5
FE
330
1F
100
AcDbEntity
  8
0
  6
CONTINUOUS
 62
     4
100
AcDb2dPolyline
 66
     1
 10
0.0
 20
0.0
 30
0.0
 70
   128
  0
VERTEX
  5
FF
330
FE
100
AcDbEntity
  8
0
  6
CONTINUOUS
 62
     4
100
AcDbVertex
100
AcDb2dVertex
 10
114.3116388631773
 20
896.1102655602556
 30
0.0
  0
VERTEX
  5
100
330
FE
100
AcDbEntity
  8
0
  6
CONTINUOUS
 62
     4
100
AcDbVertex
100
AcDb2dVertex
 10
101.8231594905662
 20
896.1102655602556
 30
0.0
  0
SEQEND
  5
101
330
FE
100
AcDbEntity
  8
0
  6
CONTINUOUS
 62
     4
  0
POLYLINE
  5
102
330
1F
100
AcDbEntity
  8
0
  6
CONTINUOUS
 62
     4
100
AcDb2dPolyline
 66
     1
 10
0.0
 20
0.0
 30
0.0
 70
   128
  0
VERTEX
  5
103
330
102
100
AcDbEntity
  8
0
  6
CONTINUOUS
 62
     4
100
AcDbVertex
100
AcDb2dVertex
 10
114.3116388631773
 20
921.1044497942671
 30
0.0
  0
VERTEX
  5
104
330
102
100
AcDbEntity
  8
0
  6
CONTINUOUS
 62
     4
100
AcDbVertex
100
AcDb2dVertex
 10
114.3116388631773
 20
896.1102655602556
 30
0.0
  0
SEQEND
  5
105
330
102
100
AcDbEntity
  8
0
  6
CONTINUOUS
 62
     4
  0
POLYLINE
  5
106
330
1F
100
AcDbEntity
  8
0
  6
CONTINUOUS
 62
     4
100
AcDb2dPolyline
 66
     1
 10
0.0
 20
0.0
 30
0.0
 70
   128
  0
VERTEX
  5
107
330
106
100
AcDbEntity
  8
0
  6
CONTINUOUS
 62
     4
100
AcDbVertex
100
AcDb2dVertex
 10
129.3227910690558
 20
923.6090358643056
 30
0.0
  0
VERTEX
  5
108
330
106
100
AcDbEntity
  8
0
  6
CONTINUOUS
 62
     4
100
AcDbVertex
100
AcDb2dVertex
 10
129.3227910690558
 20
896.373815538739
 30
0.0
  0
SEQEND
  5
109
330
106
100
AcDbEntity
  8
0
  6
CONTINUOUS
 62
     4
  0
SPLINE
  5
10A
330
1F
100
AcDbEntity
  8
0
  6
CONTINUOUS
 62
     4
100
AcDbSpline
210
0.0
220
0.0
230
1.0
 70
     8
 71
     3
 72
     8
 73
     4
 74
     0
 42
0.000000001
 43
0.00000001
 40
0.0
 40
0.0
 40
0.0
 40
0.0
 40
1.0
 40
1.0
 40
1.0
 40
1.0
 10
129.3227910690558
 20
896.373815538739
 30
0.0
 10
135.0020347230557
 20
897.397009572854
 30
0.0
 10
139.4470721052657
 20
902.8299287371597
 30
0.0
 10
139.3058230971893
 20
908.6159704216561
 30
0.0
  0
POLYLINE
  5
10B
330
1F
100
AcDbEntity
  8
0
  6
CONTINUOUS
 62
     4
100
AcDb2dPolyline
 66
     1
 10
0.0
 20
0.0
 30
0.0
 70
   128
  0
VERTEX
  5
10C
330
10B
100
AcDbEntity
  8
0
  6
CONTINUOUS
 62
     4
100
AcDbVertex
100
AcDb2dVertex
 10
94.32662676924149
 20
923.6090358643056
 30
0.0
  0
VERTEX
  5
10D
330
10B
100
AcDbEntity
  8
0
  6
CONTINUOUS
 62
     4
100
AcDbVertex
100
AcDb2dVertex
 10
94.32662676924149
 20
898.6148516302935
 30
0.0
  0
SEQEND
  5
10E
330
10B
100
AcDbEntity
  8
0
  6
CONTINUOUS
 62
     4
  0
SPLINE
  5
10F
330
1F
100
AcDbEntity
  8
0
  6
CONTINUOUS
 62
     4
100
AcDbSpline
210
0.0
220
0.0
230
1.0
 70
     8
 71
     3
 72
     8
 73
     4
 74
     0
 42
0.000000001
 43
0.00000001
 40
0.0
 40
0.0
 40
0.0
 40
0.0
 40
1.0
 40
1.0
 40
1.0
 40
1.0
 10
89.3174546291652
 20
908.6159704216561
 30
0.0
 10
89.1236678802799
 20
905.0692422798346
 30
0.0
 10
91.36384269739445
 20
900.5716671568156
 30
0.0
 10
94.32662676924149
 20
898.6148516302935
 30
0.0
  0
POLYLINE
  5
110
330
1F
100
AcDbEntity
  8
0
  6
CONTINUOUS
 62
     4
100
AcDb2dPolyline
 66
     1
 10
0.0
 20
0.0
 30
0.0
 70
   128
  0
VERTEX
  5
111
330
110
100
AcDbEntity
  8
0
  6
CONTINUOUS
 62
     4
100
AcDbVertex
100
AcDb2dVertex
 10
284.2987911620834
 20
921.3335487951721
 30
0.0
  0
VERTEX
  5
112
330
110
100
AcDbEntity
  8
0
  6
CONTINUOUS
 62
     4
100
AcDbVertex
100
AcDb2dVertex
 10
291.7953238834081
 20
921.3335487951721
 30
0.0
  0
SEQEND
  5
113
330
110
100
AcDbEntity
  8
0
  6
CONTINUOUS
 62
     4
  0
POLYLINE
  5
114
330
1F
100
AcDbEntity
  8
0
  6
CONTINUOUS
 62
     4
100
AcDb2dPolyline
 66
     1
 10
0.0
 20
0.0
 30
0.0
 70
   128
  0
VERTEX
  5
115
330
114
100
AcDbEntity
  8
0
  6
CONTINUOUS
 62
     4
100
AcDbVertex
100
AcDb2dVertex
 10
269.2885002306443
 20
921.3335487951721
 30
0.0
  0
VERTEX
  5
116
330
114
100
AcDbEntity
  8
0
  6
CONTINUOUS
 62
     4
100
AcDbVertex
100
AcDb2dVertex
 10
276.785032951969
 20
921.3335487951721
 30
0.0
  0
SEQEND
  5
117
330
114
100
AcDbEntity
  8
0
  6
CONTINUOUS
 62
     4
  0
SPLINE
  5
118
330
1F
100
AcDbEntity
  8
0
  6
CONTINUOUS
 62
     4
100
AcDbSpline
210
0.0
220
0.0
230
1.0
 70
     8
 71
     3
 72
     8
 73
     4
 74
     0
 42
0.000000001
 43
0.00000001
 40
0.0
 40
0.0
 40
0.0
 40
0.0
 40
1.0
 40
1.0
 40
1.0
 40
1.0
 10
289.289015264491
 20
896.3565900499495
 30
0.0
 10
290.6653318187966
 20
896.3565900499495
 30
0.0
 10
291.7953238834081
 20
897.4676340768925
 30
0.0
 10
291.7953238834081
 20
898.8611761199877
 30
0.0
  0
POLYLINE
  5
119
330
1F
100
AcDbEntity
  8
0
  6
CONTINUOUS
 62
     4
100
AcDb2dPolyline
 66
     1
 10
0.0
 20
0.0
 30
0.0
 70
   128
  0
VERTEX
  5
11A
330
119
100
AcDbEntity
  8
0
  6
CONTINUOUS
 62
     4
100
AcDbVertex
100
AcDb2dVertex
 10
291.7953238834081
 20
921.3335487951721
 30
0.0
  0
VERTEX
  5
11B
330
119
100
AcDbEntity
  8
0
  6
CONTINUOUS
 62
     4
100
AcDbVertex
100
AcDb2dVertex
 10
291.7953238834081
 20
898.8611761199877
 30
0.0
  0
SEQEND
  5
11C
330
119
100
AcDbEntity
  8
0
  6
CONTINUOUS
 62
     4
  0
POLYLINE
  5
11D
330
1F
100
AcDbEntity
  8
0
  6
CONTINUOUS
 62
     4
100
AcDb2dPolyline
 66
     1
 10
0.0
 20
0.0
 30
0.0
 70
   128
  0
VERTEX
  5
11E
330
11D
100
AcDbEntity
  8
0
  6
CONTINUOUS
 62
     4
100
AcDbVertex
100
AcDb2dVertex
 10
281.7942050920452
 20
896.3565900499495
 30
0.0
  0
VERTEX
  5
11F
330
11D
100
AcDbEntity
  8
0
  6
CONTINUOUS
 62
     4
100
AcDbVertex
100
AcDb2dVertex
 10
289.289015264491
 20
896.3565900499495
 30
0.0
  0
SEQEND
  5
120
330
11D
100
AcDbEntity
  8
0
  6
CONTINUOUS
 62
     4
  0
SPLINE
  5
121
330
1F
100
AcDbEntity
  8
0
  6
CONTINUOUS
 62
     4
100
AcDbSpline
210
0.0
220
0.0
230
1.0
 70
     8
 71
     3
 72
     8
 73
     4
 74
     0
 42
0.000000001
 43
0.00000001
 40
0.0
 40
0.0
 40
0.0
 40
0.0
 40
1.0
 40
1.0
 40
1.0
 40
1.0
 10
269.2885002306443
 20
908.8450694225606
 30
0.0
 10
269.2885002306443
 20
901.9479837111217
 30
0.0
 10
274.897119380606
 20
896.3565900499495
 30
0.0
 10
281.7942050920452
 20
896.3565900499495
 30
0.0
  0
POLYLINE
  5
122
330
1F
100
AcDbEntity
  8
0
  6
CONTINUOUS
 62
     4
100
AcDb2dPolyline
 66
     1
 10
0.0
 20
0.0
 30
0.0
 70
   128
  0
VERTEX
  5
123
330
122
100
AcDbEntity
  8
0
  6
CONTINUOUS
 62
     4
100
AcDbVertex
100
AcDb2dVertex
 10
269.2885002306443
 20
921.3335487951721
 30
0.0
  0
VERTEX
  5
124
330
122
100
AcDbEntity
  8
0
  6
CONTINUOUS
 62
     4
100
AcDbVertex
100
AcDb2dVertex
 10
269.2885002306443
 20
908.8450694225606
 30
0.0
  0
SEQEND
  5
125
330
122
100
AcDbEntity
  8
0
  6
CONTINUOUS
 62
     4
  0
SPLINE
  5
126
330
1F
100
AcDbEntity
  8
0
  6
CONTINUOUS
 62
     4
100
AcDbSpline
210
0.0
220
0.0
230
1.0
 70
     8
 71
     3
 72
     8
 73
     4
 74
     0
 42
0.000000001
 43
0.00000001
 40
0.0
 40
0.0
 40
0.0
 40
0.0
 40
1.0
 40
1.0
 40
1.0
 40
1.0
 10
276.785032951969
 20
908.8450694225606
 30
0.0
 10
276.785032951969
 20
906.0924363139492
 30
0.0
 10
279.0243464946441
 20
903.8531227712741
 30
0.0
 10
281.7942050920452
 20
903.8531227712741
 30
0.0
  0
POLYLINE
  5
127
330
1F
100
AcDbEntity
  8
0
  6
CONTINUOUS
 62
     4
100
AcDb2dPolyline
 66
     1
 10
0.0
 20
0.0
 30
0.0
 70
   128
  0
VERTEX
  5
128
330
127
100
AcDbEntity
  8
0
  6
CONTINUOUS
 62
     4
100
AcDbVertex
100
AcDb2dVertex
 10
281.7942050920452
 20
903.8531227712741
 30
0.0
  0
VERTEX
  5
129
330
127
100
AcDbEntity
  8
0
  6
CONTINUOUS
 62
     4
100
AcDbVertex
100
AcDb2dVertex
 10
284.2987911620834
 20
903.8531227712741
 30
0.0
  0
SEQEND
  5
12A
330
127
100
AcDbEntity
  8
0
  6
CONTINUOUS
 62
     4
  0
POLYLINE
  5
12B
330
1F
100
AcDbEntity
  8
0
  6
CONTINUOUS
 62
     4
100
AcDb2dPolyline
 66
     1
 10
0.0
 20
0.0
 30
0.0
 70
   128
  0
VERTEX
  5
12C
330
12B
100
AcDbEntity
  8
0
  6
CONTINUOUS
 62
     4
100
AcDbVertex
100
AcDb2dVertex
 10
276.785032951969
 20
921.3335487951721
 30
0.0
  0
VERTEX
  5
12D
330
12B
100
AcDbEntity
  8
0
  6
CONTINUOUS
 62
     4
100
AcDbVertex
100
AcDb2dVertex
 10
276.785032951969
 20
908.8450694225606
 30
0.0
  0
SEQEND
  5
12E
330
12B
100
AcDbEntity
  8
0
  6
CONTINUOUS
 62
     4
  0
POLYLINE
  5
12F
330
1F
100
AcDbEntity
  8
0
  6
CONTINUOUS
 62
     4
100
AcDb2dPolyline
 66
     1
 10
0.0
 20
0.0
 30
0.0
 70
   128
  0
VERTEX
  5
130
330
12F
100
AcDbEntity
  8
0
  6
CONTINUOUS
 62
     4
100
AcDbVertex
100
AcDb2dVertex
 10
284.2987911620834
 20
921.3335487951721
 30
0.0
  0
VERTEX
  5
131
330
12F
100
AcDbEntity
  8
0
  6
CONTINUOUS
 62
     4
100
AcDbVertex
100
AcDb2dVertex
 10
284.2987911620834
 20
903.8531227712741
 30
0.0
  0
SEQEND
  5
132
330
12F
100
AcDbEntity
  8
0
  6
CONTINUOUS
 62
     4
  0
SPLINE
  5
133
330
1F
100
AcDbEntity
  8
0
  6
CONTINUOUS
 62
     4
100
AcDbSpline
210
0.0
220
0.0
230
1.0
 70
     8
 71
     3
 72
     8
 73
     4
 74
     0
 42
0.000000001
 43
0.00000001
 40
0.0
 40
0.0
 40
0.0
 40
0.0
 40
1.0
 40
1.0
 40
1.0
 40
1.0
 10
264.2965535793579
 20
921.3335487951721
 30
0.0
 10
257.3994678679185
 20
921.3335487951721
 30
0.0
 10
251.7891261690779
 20
915.7421551340002
 30
0.0
 10
251.7891261690779
 20
908.8278439337711
 30
0.0
  0
POLYLINE
  5
134
330
1F
100
AcDbEntity
  8
0
  6
CONTINUOUS
 62
     4
100
AcDb2dPolyline
 66
     1
 10
0.0
 20
0.0
 30
0.0
 70
   128
  0
VERTEX
  5
135
330
134
100
AcDbEntity
  8
0
  6
CONTINUOUS
 62
     4
100
AcDbVertex
100
AcDb2dVertex
 10
264.2965535793579
 20
921.3335487951721
 30
0.0
  0
VERTEX
  5
136
330
134
100
AcDbEntity
  8
0
  6
CONTINUOUS
 62
     4
100
AcDbVertex
100
AcDb2dVertex
 10
266.801139649396
 20
921.3335487951721
 30
0.0
  0
SEQEND
  5
137
330
134
100
AcDbEntity
  8
0
  6
CONTINUOUS
 62
     4
  0
POLYLINE
  5
138
330
1F
100
AcDbEntity
  8
0
  6
CONTINUOUS
 62
     4
100
AcDb2dPolyline
 66
     1
 10
0.0
 20
0.0
 30
0.0
 70
   128
  0
VERTEX
  5
139
330
138
100
AcDbEntity
  8
0
  6
CONTINUOUS
 62
     4
100
AcDbVertex
100
AcDb2dVertex
 10
251.7891261690779
 20
908.8278439337711
 30
0.0
  0
VERTEX
  5
13A
330
138
100
AcDbEntity
  8
0
  6
CONTINUOUS
 62
     4
100
AcDbVertex
100
AcDb2dVertex
 10
251.7891261690779
 20
896.3565900499495
 30
0.0
  0
SEQEND
  5
13B
330
138
100
AcDbEntity
  8
0
  6
CONTINUOUS
 62
     4
  0
SPLINE
  5
13C
330
1F
100
AcDbEntity
  8
0
  6
CONTINUOUS
 62
     4
100
AcDbSpline
210
0.0
220
0.0
230
1.0
 70
     8
 71
     3
 72
     8
 73
     4
 74
     0
 42
0.000000001
 43
0.00000001
 40
0.0
 40
0.0
 40
0.0
 40
0.0
 40
1.0
 40
1.0
 40
1.0
 40
1.0
 10
264.2965535793579
 20
913.837016073847
 30
0.0
 10
261.5266949819566
 20
913.837016073847
 30
0.0
 10
259.3046069280714
 20
911.5959799822931
 30
0.0
 10
259.3046069280714
 20
908.8278439337711
 30
0.0
  0
POLYLINE
  5
13D
330
1F
100
AcDbEntity
  8
0
  6
CONTINUOUS
 62
     4
100
AcDb2dPolyline
 66
     1
 10
0.0
 20
0.0
 30
0.0
 70
   128
  0
VERTEX
  5
13E
330
13D
100
AcDbEntity
  8
0
  6
CONTINUOUS
 62
     4
100
AcDbVertex
100
AcDb2dVertex
 10
264.2965535793579
 20
913.837016073847
 30
0.0
  0
VERTEX
  5
13F
330
13D
100
AcDbEntity
  8
0
  6
CONTINUOUS
 62
     4
100
AcDbVertex
100
AcDb2dVertex
 10
266.801139649396
 20
913.837016073847
 30
0.0
  0
SEQEND
  5
140
330
13D
100
AcDbEntity
  8
0
  6
CONTINUOUS
 62
     4
  0
POLYLINE
  5
141
330
1F
100
AcDbEntity
  8
0
  6
CONTINUOUS
 62
     4
100
AcDb2dPolyline
 66
     1
 10
0.0
 20
0.0
 30
0.0
 70
   128
  0
VERTEX
  5
142
330
141
100
AcDbEntity
  8
0
  6
CONTINUOUS
 62
     4
100
AcDbVertex
100
AcDb2dVertex
 10
259.3046069280714
 20
908.8278439337711
 30
0.0
  0
VERTEX
  5
143
330
141
100
AcDbEntity
  8
0
  6
CONTINUOUS
 62
     4
100
AcDbVertex
100
AcDb2dVertex
 10
259.3046069280714
 20
896.3565900499495
 30
0.0
  0
SEQEND
  5
144
330
141
100
AcDbEntity
  8
0
  6
CONTINUOUS
 62
     4
  0
POLYLINE
  5
145
330
1F
100
AcDbEntity
  8
0
  6
CONTINUOUS
 62
     4
100
AcDb2dPolyline
 66
     1
 10
0.0
 20
0.0
 30
0.0
 70
   128
  0
VERTEX
  5
146
330
145
100
AcDbEntity
  8
0
  6
CONTINUOUS
 62
     4
100
AcDbVertex
100
AcDb2dVertex
 10
251.7891261690779
 20
896.3565900499495
 30
0.0
  0
VERTEX
  5
147
330
145
100
AcDbEntity
  8
0
  6
CONTINUOUS
 62
     4
100
AcDbVertex
100
AcDb2dVertex
 10
259.3046069280714
 20
896.3565900499495
 30
0.0
  0
SEQEND
  5
148
330
145
100
AcDbEntity
  8
0
  6
CONTINUOUS
 62
     4
  0
POLYLINE
  5
149
330
1F
100
AcDbEntity
  8
0
  6
CONTINUOUS
 62
     4
100
AcDb2dPolyline
 66
     1
 10
0.0
 20
0.0
 30
0.0
 70
   128
  0
VERTEX
  5
14A
330
149
100
AcDbEntity
  8
0
  6
CONTINUOUS
 62
     4
100
AcDbVertex
100
AcDb2dVertex
 10
266.801139649396
 20
921.3335487951721
 30
0.0
  0
VERTEX
  5
14B
330
149
100
AcDbEntity
  8
0
  6
CONTINUOUS
 62
     4
100
AcDbVertex
100
AcDb2dVertex
 10
266.801139649396
 20
913.837016073847
 30
0.0
  0
SEQEND
  5
14C
330
149
100
AcDbEntity
  8
0
  6
CONTINUOUS
 62
     4
  0
SPLINE
  5
14D
330
1F
100
AcDbEntity
  8
0
  6
CONTINUOUS
 62
     4
100
AcDbSpline
210
0.0
220
0.0
230
1.0
 70
    11
 71
     3
 72
    17
 73
    13
 74
     0
 42
0.000000001
 43
0.00000001
 40
0.0
 40
0.0
 40
0.0
 40
0.0
 40
1.0
 40
1.0
 40
1.0
 40
2.0
 40
2.0
 40
2.0
 40
3.0
 40
3.0
 40
3.0
 40
4.0
 40
4.0
 40
4.0
 40
4.0
 10
241.806955415384
 20
908.8450694225606
 30
0.0
 10
241.806955415384
 20
911.6132054710831
 30
0.0
 10
239.5659193238299
 20
913.8542415626371
 30
0.0
 10
236.7960607264287
 20
913.8542415626371
 30
0.0
 10
234.0451501666963
 20
913.8542415626371
 30
0.0
 10
231.8058366240212
 20
911.6132054710831
 30
0.0
 10
231.8058366240212
 20
908.8450694225606
 30
0.0
 10
231.8058366240212
 20
906.0924363139492
 30
0.0
 10
234.0451501666963
 20
903.8531227712741
 30
0.0
 10
236.7960607264287
 20
903.8531227712741
 30
0.0
 10
239.5659193238299
 20
903.8531227712741
 30
0.0
 10
241.806955415384
 20
906.0924363139492
 30
0.0
 10
241.806955415384
 20
908.8450694225606
 30
0.0
  0
SPLINE
  5
14E
330
1F
100
AcDbEntity
  8
0
  6
CONTINUOUS
 62
     4
100
AcDbSpline
210
0.0
220
0.0
230
1.0
 70
    11
 71
     3
 72
    17
 73
    13
 74
     0
 42
0.000000001
 43
0.00000001
 40
0.0
 40
0.0
 40
0.0
 40
0.0
 40
1.0
 40
1.0
 40
1.0
 40
2.0
 40
2.0
 40
2.0
 40
3.0
 40
3.0
 40
3.0
 40
4.0
 40
4.0
 40
4.0
 40
4.0
 10
249.3034881367086
 20
908.8450694225606
 30
0.0
 10
249.3034881367086
 20
915.7593806227896
 30
0.0
 10
243.693146437868
 20
921.3507742839615
 30
0.0
 10
236.7960607264287
 20
921.3507742839615
 30
0.0
 10
229.9006975638684
 20
921.3507742839615
 30
0.0
 10
224.3093039026965
 20
915.7593806227896
 30
0.0
 10
224.3093039026965
 20
908.8450694225606
 30
0.0
 10
224.3093039026965
 20
901.9479837111217
 30
0.0
 10
229.9006975638684
 20
896.3565900499495
 30
0.0
 10
236.7960607264287
 20
896.3565900499495
 30
0.0
 10
243.693146437868
 20
896.3565900499495
 30
0.0
 10
249.3034881367086
 20
901.9479837111217
 30
0.0
 10
249.3034881367086
 20
908.8450694225606
 30
0.0
  0
POLYLINE
  5
14F
330
1F
100
AcDbEntity
  8
0
  6
CONTINUOUS
 62
     4
100
AcDb2dPolyline
 66
     1
 10
0.0
 20
0.0
 30
0.0
 70
   128
  0
VERTEX
  5
150
330
14F
100
AcDbEntity
  8
0
  6
CONTINUOUS
 62
     4
100
AcDbVertex
100
AcDb2dVertex
 10
196.8088110497673
 20
923.8381348652101
 30
0.0
  0
VERTEX
  5
151
330
14F
100
AcDbEntity
  8
0
  6
CONTINUOUS
 62
     4
100
AcDbVertex
100
AcDb2dVertex
 10
204.3053437710919
 20
923.8381348652101
 30
0.0
  0
SEQEND
  5
152
330
14F
100
AcDbEntity
  8
0
  6
CONTINUOUS
 62
     4
  0
POLYLINE
  5
153
330
1F
100
AcDbEntity
  8
0
  6
CONTINUOUS
 62
     4
100
AcDb2dPolyline
 66
     1
 10
0.0
 20
0.0
 30
0.0
 70
   128
  0
VERTEX
  5
154
330
153
100
AcDbEntity
  8
0
  6
CONTINUOUS
 62
     4
100
AcDbVertex
100
AcDb2dVertex
 10
204.3053437710919
 20
920.310354761057
 30
0.0
  0
VERTEX
  5
155
330
153
100
AcDbEntity
  8
0
  6
CONTINUOUS
 62
     4
100
AcDbVertex
100
AcDb2dVertex
 10
204.3053437710919
 20
923.8381348652101
 30
0.0
  0
SEQEND
  5
156
330
153
100
AcDbEntity
  8
0
  6
CONTINUOUS
 62
     4
  0
POLYLINE
  5
157
330
1F
100
AcDbEntity
  8
0
  6
CONTINUOUS
 62
     4
100
AcDb2dPolyline
 66
     1
 10
0.0
 20
0.0
 30
0.0
 70
   128
  0
VERTEX
  5
158
330
157
100
AcDbEntity
  8
0
  6
CONTINUOUS
 62
     4
100
AcDbVertex
100
AcDb2dVertex
 10
196.8088110497673
 20
908.8450694225606
 30
0.0
  0
VERTEX
  5
159
330
157
100
AcDbEntity
  8
0
  6
CONTINUOUS
 62
     4
100
AcDbVertex
100
AcDb2dVertex
 10
196.8088110497673
 20
923.8381348652101
 30
0.0
  0
SEQEND
  5
15A
330
157
100
AcDbEntity
  8
0
  6
CONTINUOUS
 62
     4
  0
SPLINE
  5
15B
330
1F
100
AcDbEntity
  8
0
  6
CONTINUOUS
 62
     4
100
AcDbSpline
210
0.0
220
0.0
230
1.0
 70
     8
 71
     3
 72
    17
 73
    13
 74
     0
 42
0.000000001
 43
0.00000001
 40
0.0
 40
0.0
 40
0.0
 40
0.0
 40
1.0
 40
1.0
 40
1.0
 40
2.0
 40
2.0
 40
2.0
 40
3.0
 40
3.0
 40
3.0
 40
4.0
 40
4.0
 40
4.0
 40
4.0
 10
196.8088110497673
 20
908.8450694225606
 30
0.0
 10
196.8088110497673
 20
901.9479837111217
 30
0.0
 10
202.4002047109392
 20
896.3565900499495
 30
0.0
 10
209.2972904223785
 20
896.3565900499495
 30
0.0
 10
216.2116016226076
 20
896.3565900499495
 30
0.0
 10
221.8029952837794
 20
901.9479837111217
 30
0.0
 10
221.8029952837794
 20
908.8450694225606
 30
0.0
 10
221.8029952837794
 20
915.7593806227896
 30
0.0
 10
216.2116016226076
 20
921.3507742839615
 30
0.0
 10
209.2972904223785
 20
921.3507742839615
 30
0.0
 10
207.903748379283
 20
921.421398788
 30
0.0
 10
205.5576368061111
 20
920.9270272597327
 30
0.0
 10
204.3053437710919
 20
920.310354761057
 30
0.0
  0
SPLINE
  5
15C
330
1F
100
AcDbEntity
  8
0
  6
CONTINUOUS
 62
     4
100
AcDbSpline
210
0.0
220
0.0
230
1.0
 70
    11
 71
     3
 72
    17
 73
    13
 74
     0
 42
0.000000001
 43
0.00000001
 40
0.0
 40
0.0
 40
0.0
 40
0.0
 40
1.0
 40
1.0
 40
1.0
 40
2.0
 40
2.0
 40
2.0
 40
3.0
 40
3.0
 40
3.0
 40
4.0
 40
4.0
 40
4.0
 40
4.0
 10
214.3064625624548
 20
908.8450694225606
 30
0.0
 10
214.3064625624548
 20
911.6132054710831
 30
0.0
 10
212.0654264709007
 20
913.8542415626371
 30
0.0
 10
209.2972904223785
 20
913.8542415626371
 30
0.0
 10
206.5463798626461
 20
913.8542415626371
 30
0.0
 10
204.3053437710919
 20
911.6132054710831
 30
0.0
 10
204.3053437710919
 20
908.8450694225606
 30
0.0
 10
204.3053437710919
 20
906.0924363139492
 30
0.0
 10
206.5463798626461
 20
903.8531227712741
 30
0.0
 10
209.2972904223785
 20
903.8531227712741
 30
0.0
 10
212.0654264709007
 20
903.8531227712741
 30
0.0
 10
214.3064625624548
 20
906.0924363139492
 30
0.0
 10
214.3064625624548
 20
908.8450694225606
 30
0.0
  0
SPLINE
  5
15D
330
1F
100
AcDbEntity
  8
0
  6
CONTINUOUS
 62
     4
100
AcDbSpline
210
0.0
220
0.0
230
1.0
 70
    11
 71
     3
 72
    17
 73
    13
 74
     0
 42
0.000000001
 43
0.00000001
 40
0.0
 40
0.0
 40
0.0
 40
0.0
 40
1.0
 40
1.0
 40
1.0
 40
2.0
 40
2.0
 40
2.0
 40
3.0
 40
3.0
 40
3.0
 40
4.0
 40
4.0
 40
4.0
 40
4.0
 10
186.8076922584046
 20
908.8450694225606
 30
0.0
 10
186.8076922584046
 20
911.6132054710831
 30
0.0
 10
184.56751744129
 20
913.8542415626371
 30
0.0
 10
181.7985201183283
 20
913.8542415626371
 30
0.0
 10
179.0467482841564
 20
913.8542415626371
 30
0.0
 10
176.8065734670418
 20
911.6132054710831
 30
0.0
 10
176.8065734670418
 20
908.8450694225606
 30
0.0
 10
176.8065734670418
 20
906.0924363139492
 30
0.0
 10
179.0467482841564
 20
903.8531227712741
 30
0.0
 10
181.7985201183283
 20
903.8531227712741
 30
0.0
 10
184.56751744129
 20
903.8531227712741
 30
0.0
 10
186.8076922584046
 20
906.0924363139492
 30
0.0
 10
186.8076922584046
 20
908.8450694225606
 30
0.0
  0
SPLINE
  5
15E
330
1F
100
AcDbEntity
  8
0
  6
CONTINUOUS
 62
     4
100
AcDbSpline
210
0.0
220
0.0
230
1.0
 70
    11
 71
     3
 72
    17
 73
    13
 74
     0
 42
0.000000001
 43
0.00000001
 40
0.0
 40
0.0
 40
0.0
 40
0.0
 40
1.0
 40
1.0
 40
1.0
 40
2.0
 40
2.0
 40
2.0
 40
3.0
 40
3.0
 40
3.0
 40
4.0
 40
4.0
 40
4.0
 40
4.0
 10
194.3042249797292
 20
908.8450694225606
 30
0.0
 10
194.3042249797292
 20
915.7593806227896
 30
0.0
 10
188.7128313185574
 20
921.3507742839615
 30
0.0
 10
181.7985201183283
 20
921.3507742839615
 30
0.0
 10
174.901434406889
 20
921.3507742839615
 30
0.0
 10
169.3100407457171
 20
915.7593806227896
 30
0.0
 10
169.3100407457171
 20
908.8450694225606
 30
0.0
 10
169.3100407457171
 20
901.9479837111217
 30
0.0
 10
174.901434406889
 20
896.3565900499495
 30
0.0
 10
181.7985201183283
 20
896.3565900499495
 30
0.0
 10
188.7128313185574
 20
896.3565900499495
 30
0.0
 10
194.3042249797292
 20
901.9479837111217
 30
0.0
 10
194.3042249797292
 20
908.8450694225606
 30
0.0
  0
SPLINE
  5
15F
330
1F
100
AcDbEntity
  8
0
  6
CONTINUOUS
 62
     4
100
AcDbSpline
210
0.0
220
0.0
230
1.0
 70
     8
 71
     3
 72
     8
 73
     4
 74
     0
 42
0.000000001
 43
0.00000001
 40
0.0
 40
0.0
 40
0.0
 40
0.0
 40
1.0
 40
1.0
 40
1.0
 40
1.0
 10
166.805454675679
 20
910.0973624575802
 30
0.0
 10
166.805454675679
 20
916.3054286174266
 30
0.0
 10
161.7781957723734
 20
921.3507742839615
 30
0.0
 10
155.5692683380869
 20
921.3507742839615
 30
0.0
  0
SPLINE
  5
160
330
1F
100
AcDbEntity
  8
0
  6
CONTINUOUS
 62
     4
100
AcDbSpline
210
0.0
220
0.0
230
1.0
 70
     8
 71
     3
 72
     8
 73
     4
 74
     0
 42
0.000000001
 43
0.00000001
 40
0.0
 40
0.0
 40
0.0
 40
0.0
 40
1.0
 40
1.0
 40
1.0
 40
1.0
 10
146.8204425817432
 20
921.3507742839615
 30
0.0
 10
145.4269005386477
 20
921.3507742839615
 30
0.0
 10
144.3158565117051
 20
920.2397302570191
 30
0.0
 10
144.3158565117051
 20
918.8461882139236
 30
0.0
  0
POLYLINE
  5
161
330
1F
100
AcDbEntity
  8
0
  6
CONTINUOUS
 62
     4
100
AcDb2dPolyline
 66
     1
 10
0.0
 20
0.0
 30
0.0
 70
   128
  0
VERTEX
  5
162
330
161
100
AcDbEntity
  8
0
  6
CONTINUOUS
 62
     4
100
AcDbVertex
100
AcDb2dVertex
 10
155.5692683380869
 20
921.3507742839615
 30
0.0
  0
VERTEX
  5
163
330
161
100
AcDbEntity
  8
0
  6
CONTINUOUS
 62
     4
100
AcDbVertex
100
AcDb2dVertex
 10
146.8204425817432
 20
921.3507742839615
 30
0.0
  0
SEQEND
  5
164
330
161
100
AcDbEntity
  8
0
  6
CONTINUOUS
 62
     4
  0
SPLINE
  5
165
330
1F
100
AcDbEntity
  8
0
  6
CONTINUOUS
 62
     4
100
AcDbSpline
210
0.0
220
0.0
230
1.0
 70
     8
 71
     3
 72
     8
 73
     4
 74
     0
 42
0.000000001
 43
0.00000001
 40
0.0
 40
0.0
 40
0.0
 40
0.0
 40
1.0
 40
1.0
 40
1.0
 40
1.0
 10
159.3089219543543
 20
908.8450694225606
 30
0.0
 10
159.3089219543543
 20
911.6132054710831
 30
0.0
 10
157.0687471372398
 20
913.8542415626371
 30
0.0
 10
154.3169753030679
 20
913.8542415626371
 30
0.0
  0
POLYLINE
  5
166
330
1F
100
AcDbEntity
  8
0
  6
CONTINUOUS
 62
     4
100
AcDb2dPolyline
 66
     1
 10
0.0
 20
0.0
 30
0.0
 70
   128
  0
VERTEX
  5
167
330
166
100
AcDbEntity
  8
0
  6
CONTINUOUS
 62
     4
100
AcDbVertex
100
AcDb2dVertex
 10
144.3158565117051
 20
918.8461882139236
 30
0.0
  0
VERTEX
  5
168
330
166
100
AcDbEntity
  8
0
  6
CONTINUOUS
 62
     4
100
AcDbVertex
100
AcDb2dVertex
 10
144.3158565117051
 20
896.3565900499495
 30
0.0
  0
SEQEND
  5
169
330
166
100
AcDbEntity
  8
0
  6
CONTINUOUS
 62
     4
  0
POLYLINE
  5
16A
330
1F
100
AcDbEntity
  8
0
  6
CONTINUOUS
 62
     4
100
AcDb2dPolyline
 66
     1
 10
0.0
 20
0.0
 30
0.0
 70
   128
  0
VERTEX
  5
16B
330
16A
100
AcDbEntity
  8
0
  6
CONTINUOUS
 62
     4
100
AcDbVertex
100
AcDb2dVertex
 10
151.8123892330298
 20
896.3565900499495
 30
0.0
  0
VERTEX
  5
16C
330
16A
100
AcDbEntity
  8
0
  6
CONTINUOUS
 62
     4
100
AcDbVertex
100
AcDb2dVertex
 10
151.8123892330298
 20
913.8542415626371
 30
0.0
  0
SEQEND
  5
16D
330
16A
100
AcDbEntity
  8
0
  6
CONTINUOUS
 62
     4
  0
POLYLINE
  5
16E
330
1F
100
AcDbEntity
  8
0
  6
CONTINUOUS
 62
     4
100
AcDb2dPolyline
 66
     1
 10
0.0
 20
0.0
 30
0.0
 70
   128
  0
VERTEX
  5
16F
330
16E
100
AcDbEntity
  8
0
  6
CONTINUOUS
 62
     4
100
AcDbVertex
100
AcDb2dVertex
 10
151.8123892330298
 20
913.8542415626371
 30
0.0
  0
VERTEX
  5
170
330
16E
100
AcDbEntity
  8
0
  6
CONTINUOUS
 62
     4
100
AcDbVertex
100
AcDb2dVertex
 10
154.3169753030679
 20
913.8542415626371
 30
0.0
  0
SEQEND
  5
171
330
16E
100
AcDbEntity
  8
0
  6
CONTINUOUS
 62
     4
  0
POLYLINE
  5
172
330
1F
100
AcDbEntity
  8
0
  6
CONTINUOUS
 62
     4
100
AcDb2dPolyline
 66
     1
 10
0.0
 20
0.0
 30
0.0
 70
   128
  0
VERTEX
  5
173
330
172
100
AcDbEntity
  8
0
  6
CONTINUOUS
 62
     4
100
AcDbVertex
100
AcDb2dVertex
 10
166.805454675679
 20
896.3565900499495
 30
0.0
  0
VERTEX
  5
174
330
172
100
AcDbEntity
  8
0
  6
CONTINUOUS
 62
     4
100
AcDbVertex
100
AcDb2dVertex
 10
166.805454675679
 20
910.0973624575802
 30
0.0
  0
SEQEND
  5
175
330
172
100
AcDbEntity
  8
0
  6
CONTINUOUS
 62
     4
  0
POLYLINE
  5
176
330
1F
100
AcDbEntity
  8
0
  6
CONTINUOUS
 62
     4
100
AcDb2dPolyline
 66
     1
 10
0.0
 20
0.0
 30
0.0
 70
   128
  0
VERTEX
  5
177
330
176
100
AcDbEntity
  8
0
  6
CONTINUOUS
 62
     4
100
AcDbVertex
100
AcDb2dVertex
 10
159.3089219543543
 20
908.8450694225606
 30
0.0
  0
VERTEX
  5
178
330
176
100
AcDbEntity
  8
0
  6
CONTINUOUS
 62
     4
100
AcDbVertex
100
AcDb2dVertex
 10
159.3089219543543
 20
896.3565900499495
 30
0.0
  0
SEQEND
  5
179
330
176
100
AcDbEntity
  8
0
  6
CONTINUOUS
 62
     4
  0
POLYLINE
  5
17A
330
1F
100
AcDbEntity
  8
0
  6
CONTINUOUS
 62
     4
100
AcDb2dPolyline
 66
     1
 10
0.0
 20
0.0
 30
0.0
 70
   128
  0
VERTEX
  5
17B
330
17A
100
AcDbEntity
  8
0
  6
CONTINUOUS
 62
     4
100
AcDbVertex
100
AcDb2dVertex
 10
144.3158565117051
 20
896.3565900499495
 30
0.0
  0
VERTEX
  5
17C
330
17A
100
AcDbEntity
  8
0
  6
CONTINUOUS
 62
     4
100
AcDbVertex
100
AcDb2dVertex
 10
151.8123892330298
 20
896.3565900499495
 30
0.0
  0
SEQEND
  5
17D
330
17A
100
AcDbEntity
  8
0
  6
CONTINUOUS
 62
     4
  0
POLYLINE
  5
17E
330
1F
100
AcDbEntity
  8
0
  6
CONTINUOUS
 62
     4
100
AcDb2dPolyline
 66
     1
 10
0.0
 20
0.0
 30
0.0
 70
   128
  0
VERTEX
  5
17F
330
17E
100
AcDbEntity
  8
0
  6
CONTINUOUS
 62
     4
100
AcDbVertex
100
AcDb2dVertex
 10
159.3089219543543
 20
896.3565900499495
 30
0.0
  0
VERTEX
  5
180
330
17E
100
AcDbEntity
  8
0
  6
CONTINUOUS
 62
     4
100
AcDbVertex
100
AcDb2dVertex
 10
166.805454675679
 20
896.3565900499495
 30
0.0
  0
SEQEND
  5
181
330
17E
100
AcDbEntity
  8
0
  6
CONTINUOUS
 62
     4
  0
TEXT
  5
183
330
1F
100
AcDbEntity
  8
0
  6
CONTINUOUS
 62
     4
100
AcDbText
 10
631.4189055703
 20
29.58873238149203
 30
0.0
 40
15.16300227445034
  1
株式会社ノボル電機
 41
0.9999999999999999
  7
EXCADTTF2
 72
     5
 11
811.4189055703
 21
29.58873238149203
 31
0.0
100
AcDbText
  0
ARC
  5
184
330
1F
100
AcDbEntity
  8
0
  6
CONTINUOUS
 62
     4
100
AcDbCircle
 10
60.00000000000005
 20
965.0000000000001
 30
0.0
 40
10.0
100
AcDbArc
 50
90.00000000000001
 51
180.0
  0
ARC
  5
185
330
1F
100
AcDbEntity
  8
0
  6
CONTINUOUS
 62
     4
100
AcDbCircle
 10
1425.0
 20
965.0000000000001
 30
0.0
 40
10.0
100
AcDbArc
 50
0.0
 51
90.00000000000001
  0
LINE
  5
186
330
1F
100
AcDbEntity
  8
0
  6
CONTINUOUS
 62
     4
100
AcDbLine
 10
60.00000000000005
 20
975.0000000000001
 30
0.0
 11
1425.0
 21
975.0000000000001
 31
0.0
  0
ARC
  5
187
330
1F
100
AcDbEntity
  8
0
  6
CONTINUOUS
 62
     4
100
AcDbCircle
 10
1425.0
 20
60.00000000000029
 30
0.0
 40
10.0
100
AcDbArc
 50
270.0
 51
0.0
  0
LINE
  5
188
330
1F
100
AcDbEntity
  8
0
  6
CONTINUOUS
 62
     4
100
AcDbLine
 10
1435.0
 20
965.0000000000001
 30
0.0
 11
1434.999999999999
 21
60.00000000000029
 31
0.0
  0
ARC
  5
189
330
1F
100
AcDbEntity
  8
0
  6
CONTINUOUS
 62
     4
100
AcDbCircle
 10
60.0
 20
60.00000000000004
 30
0.0
 40
10.0
100
AcDbArc
 50
180.0
 51
270.0
  0
LINE
  5
18A
330
1F
100
AcDbEntity
  8
0
  6
CONTINUOUS
 62
     4
100
AcDbLine
 10
50.0
 20
60.00000000000004
 30
0.0
 11
50.00000000000005
 21
965.0000000000001
 31
0.0
  0
LINE
  5
18B
330
1F
100
AcDbEntity
  8
0
  6
CONTINUOUS
 62
     4
100
AcDbLine
 10
1425.0
 20
50.00000000000029
 30
0.0
 11
60.0
 21
50.00000000000044
 31
0.0
  0
TEXT
  5
18C
330
1F
100
AcDbEntity
  8
0
  6
CONTINUOUS
 62
     7
100
AcDbText
 10
1366.470031628506
 20
33.44910416787457
 30
0.0
 40
11.5473441108545
  1
2019/2/13
 41
0.9992307692307691
  7
EXCADTTF1
 72
     5
 11
1433.970031628506
 21
33.44910416787457
 31
0.0
100
AcDbText
  0
POLYLINE
  5
18D
330
1F
100
AcDbEntity
  8
注釈
  6
CONTINUOUS
 62
     2
100
AcDb2dPolyline
 66
     1
 10
0.0
 20
0.0
 30
0.0
 70
   128
  0
VERTEX
  5
18E
330
18D
100
AcDbEntity
  8
注釈
  6
CONTINUOUS
 62
     2
100
AcDbVertex
100
AcDb2dVertex
 10
1086.715181927505
 20
69.62699910310504
 30
0.0
  0
VERTEX
  5
18F
330
18D
100
AcDbEntity
  8
注釈
  6
CONTINUOUS
 62
     2
100
AcDbVertex
100
AcDb2dVertex
 10
1411.715181927505
 20
69.62699910310504
 30
0.0
  0
VERTEX
  5
190
330
18D
100
AcDbEntity
  8
注釈
  6
CONTINUOUS
 62
     2
100
AcDbVertex
100
AcDb2dVertex
 10
1411.715181927505
 20
124.626999103105
 30
0.0
  0
VERTEX
  5
191
330
18D
100
AcDbEntity
  8
注釈
  6
CONTINUOUS
 62
     2
100
AcDbVertex
100
AcDb2dVertex
 10
1086.715181927505
 20
124.6269991031052
 30
0.0
  0
VERTEX
  5
192
330
18D
100
AcDbEntity
  8
注釈
  6
CONTINUOUS
 62
     2
100
AcDbVertex
100
AcDb2dVertex
 10
1086.715181927505
 20
69.62699910310504
 30
0.0
  0
SEQEND
  5
193
330
18D
100
AcDbEntity
  8
注釈
  6
CONTINUOUS
 62
     2
  0
TEXT
  5
194
330
1F
100
AcDbEntity
  8
注釈
  6
CONTINUOUS
 62
     7
100
AcDbText
 10
1089.806688278405
 20
101.517865733235
 30
0.0
 40
15.39645881447267
  1
断りなく改良のため仕様を変更する
 41
0.9992307692307693
  7
EXCADTTF1
 72
     5
 11
1409.806688278405
 21
101.517865733235
 31
0.0
100
AcDbText
  0
TEXT
  5
195
330
1F
100
AcDbEntity
  8
注釈
  6
CONTINUOUS
 62
     7
100
AcDbText
 10
1089.806688278405
 20
79.01786573323504
 30
0.0
 40
15.39645881447267
  1
場合がありますのでご了承下さい。
 41
0.9992307692307693
  7
EXCADTTF1
 72
     5
 11
1409.806688278405
 21
79.01786573323504
 31
0.0
100
AcDbText
  0
TEXT
  5
196
330
1F
100
AcDbEntity
  8
仕様
  6
CONTINUOUS
 62
     7
100
AcDbText
 10
947.9999999999999
 20
343.1771659999999
 30
0.0
 40
15.590552
  1
単位:mm  尺度:1/5
 41
0.8895674907048752
  7
EXCADSTD
 72
     5
 11
1115.0866
 21
343.1771659999999
 31
0.0
100
AcDbText
  0
LINE
  5
197
330
1F
100
AcDbEntity
  8
仕様
  6
CONTINUOUS
 62
     2
100
AcDbLine
 10
1125.0
 20
334.5
 30
0.0
 11
1125.0
 21
214.5
 31
0.0
  0
TEXT
  5
198
330
1F
100
AcDbEntity
  8
仕様
  6
CONTINUOUS
 62
     7
100
AcDbText
 10
401.9999999999999
 20
311.677166
 30
0.0
 40
15.590552
  1
定格入力
 41
1.499235757879405
  7
EXCADSTD
 72
     5
 11
478.7999999999999
 21
311.677166
 31
0.0
100
AcDbText
  0
TEXT
  5
199
330
1F
100
AcDbEntity
  8
仕様
  6
CONTINUOUS
 62
     7
100
AcDbText
 10
690.9999999999998
 20
222.677166
 30
0.0
 40
15.590552
  1
マンセル5Y7/1半ツヤ(または指定色)
 41
1.230658422747201
  7
EXCADSTD
 72
     5
 11
1018.0866
 21
222.677166
 31
0.0
100
AcDbText
  0
LINE
  5
19A
330
1F
100
AcDbEntity
  8
仕様
  6
CONTINUOUS
 62
     2
100
AcDbLine
 10
385.4999999999998
 20
334.5
 30
0.0
 11
385.4999999999998
 21
214.5
 31
0.0
  0
LINE
  5
19B
330
1F
100
AcDbEntity
  8
仕様
  6
CONTINUOUS
 62
     2
100
AcDbLine
 10
675.9999999999998
 20
334.5
 30
0.0
 11
675.9999999999998
 21
214.5
 31
0.0
  0
LINE
  5
19C
330
1F
100
AcDbEntity
  8
仕様
  6
CONTINUOUS
 62
     2
100
AcDbLine
 10
385.4999999999998
 20
334.5
 30
0.0
 11
1125.0
 21
334.5000000000002
 31
0.0
  0
LINE
  5
19D
330
1F
100
AcDbEntity
  8
仕様
  6
CONTINUOUS
 62
     2
100
AcDbLine
 10
385.4999999999998
 20
304.5
 30
0.0
 11
1125.0
 21
304.5000000000001
 31
0.0
  0
LINE
  5
19E
330
1F
100
AcDbEntity
  8
仕様
  6
CONTINUOUS
 62
     2
100
AcDbLine
 10
385.4999999999998
 20
274.5
 30
0.0
 11
1125.0
 21
274.5000000000001
 31
0.0
  0
LINE
  5
19F
330
1F
100
AcDbEntity
  8
仕様
  6
CONTINUOUS
 62
     2
100
AcDbLine
 10
385.4999999999998
 20
244.5
 30
0.0
 11
1125.0
 21
244.5000000000001
 31
0.0
  0
LINE
  5
1A0
330
1F
100
AcDbEntity
  8
仕様
  6
CONTINUOUS
 62
     2
100
AcDbLine
 10
385.4999999999998
 20
214.5
 30
0.0
 11
1125.0
 21
214.5000000000002
 31
0.0
  0
TEXT
  5
1A1
330
1F
100
AcDbEntity
  8
仕様
  6
CONTINUOUS
 62
     7
100
AcDbText
 10
692.4173999999998
 20
311.1771660000001
 30
0.0
 40
15.590552
  1
10W(1kΩ), 5W(2kΩ), 2.5W(4kΩ)
 41
0.8419777670161522
  7
EXCADSTD
 72
     5
 11
998.0865999999999
 21
311.1771660000001
 31
0.0
100
AcDbText
  0
TEXT
  5
1A2
330
1F
100
AcDbEntity
  8
仕様
  6
CONTINUOUS
 62
     7
100
AcDbText
 10
692.9173999999999
 20
282.677166
 30
0.0
 40
15.590552
  1
102dB
 41
0.6341755180799621
  7
EXCADSTD
 72
     5
 11
738.5866
 21
282.677166
 31
0.0
100
AcDbText
  0
TEXT
  5
1A3
330
1F
100
AcDbEntity
  8
仕様
  6
CONTINUOUS
 62
     7
100
AcDbText
 10
692.9173999999999
 20
252.177166
 30
0.0
 40
15.590552
  1
320Hz～5kHz
 41
0.7491221201418051
  7
EXCADSTD
 72
     5
 11
798.5866
 21
252.177166
 31
0.0
100
AcDbText
  0
TEXT
  5
1A4
330
1F
100
AcDbEntity
  8
仕様
  6
CONTINUOUS
 62
     7
100
AcDbText
 10
403.4999999999998
 20
221.677166
 30
0.0
 40
15.590552
  1
色調
 41
1.502075219542055
  7
EXCADSTD
 72
     5
 11
440.2999999999998
 21
221.677166
 31
0.0
100
AcDbText
  0
TEXT
  5
1A5
330
1F
100
AcDbEntity
  8
仕様
  6
CONTINUOUS
 62
     7
100
AcDbText
 10
402.4999999999998
 20
252.6771659999999
 30
0.0
 40
15.590552
  1
再生周波数帯域
 41
1.498093047698094
  7
EXCADSTD
 72
     5
 11
539.2999999999998
 21
252.6771659999999
 31
0.0
100
AcDbText
  0
TEXT
  5
1A6
330
1F
100
AcDbEntity
  8
仕様
  6
CONTINUOUS
 62
     7
100
AcDbText
 10
402.4999999999998
 20
282.677166
 30
0.0
 40
15.590552
  1
出力音圧レベル
 41
1.498093047698094
  7
EXCADSTD
 72
     5
 11
539.2999999999998
 21
282.677166
 31
0.0
100
AcDbText
  0
TEXT
  5
1A7
330
1F
100
AcDbEntity
  8
仕様
  6
CONTINUOUS
 62
     7
100
AcDbText
 10
413.3348000000001
 20
882.854332
 30
0.0
 40
31.181104
  1
10W安全増防爆構造ホーンスピーカー
 41
1.324110208762596
  7
EXCADSTD
 72
     5
 11
1064.1
 21
882.854332
 31
0.0
100
AcDbText
  0
TEXT
  5
1A8
330
1F
100
AcDbEntity
  8
仕様
  6
CONTINUOUS
 62
     7
100
AcDbText
 10
1210.8348
 20
882.3543320000001
 30
0.0
 40
31.181104
  1
ES-10E
 41
0.6146288648848696
  7
EXCADSTD
 72
     5
 11
1322.1732
 21
882.3543320000001
 31
0.0
100
AcDbText
  0
DIMENSION
  5
1AA
330
1F
100
AcDbEntity
  8
外観図
  6
CONTINUOUS
 62
     2
100
AcDbDimension
  2
*D15
 10
354.7050686121902
 20
758.3388949499999
 30
0.0
 11
449.7300686121904
 21
770.8388949499999
 31
0.0
 70
   160
  1
191
  3
ISO-25
100
AcDbAlignedDimension
 13
544.7550686121903
 23
578.0
 33
0.0
 14
354.7050686121902
 24
728.0150000000001
 34
0.0
100
AcDbRotatedDimension
1001
ACAD
1000
DSTYLE
1002
{
1070
   270
1070
     2
1070
     6
1000
EX_NORM
1070
     7
1000
EX_NORM
1070
    41
1040
15.0
1070
    42
1040
7.5
1070
    44
1040
7.5
1070
    73
1070
     0
1070
    74
1070
     0
1070
    75
1070
     0
1070
    76
1070
     0
1070
    77
1070
     1
1070
    78
1070
     8
1070
   140
1040
15.590552
1070
   147
1040
0.0
1070
   173
1070
     1
1070
   176
1070
     2
1070
   177
1070
     2
1070
   178
1070
     2
1070
   271
1070
     2
1070
   277
1070
     2
1070
   279
1070
     2
1070
   280
1070
     0
1070
   287
1070
     5
1070
   340
1005
1A9
1002
}
  0
DIMENSION
  5
1B8
330
1F
100
AcDbEntity
  8
外観図
  6
CONTINUOUS
 62
     2
100
AcDbDimension
  2
*D16
 10
705.6236259734902
 20
799.8388949499999
 30
0.0
 11
530.1643472928404
 21
812.3388949499999
 31
0.0
 70
   160
  1
351
  3
ISO-25
100
AcDbAlignedDimension
 13
354.7050686121902
 23
728.0150000000001
 33
0.0
 14
705.6236259734902
 24
579.85567222895
 34
0.0
100
AcDbRotatedDimension
1001
ACAD
1000
DSTYLE
1002
{
1070
   270
1070
     2
1070
     6
1000
EX_NORM
1070
     7
1000
EX_NORM
1070
    41
1040
15.0
1070
    42
1040
7.5
1070
    44
1040
7.5
1070
    73
1070
     0
1070
    74
1070
     0
1070
    75
1070
     0
1070
    76
1070
     0
1070
    77
1070
     1
1070
    78
1070
     8
1070
   140
1040
15.590552
1070
   147
1040
0.0
1070
   173
1070
     1
1070
   176
1070
     2
1070
   177
1070
     2
1070
   178
1070
     2
1070
   271
1070
     2
1070
   277
1070
     2
1070
   279
1070
     2
1070
   280
1070
     0
1070
   287
1070
     5
1070
   340
1005
1A9
1002
}
  0
DIMENSION
  5
1C5
330
1F
100
AcDbEntity
  8
外観図
  6
CONTINUOUS
 62
     2
100
AcDbDimension
  2
*D17
 10
1190.4874975905
 20
799.8388949499999
 30
0.0
 11
1035.487497590512
 21
812.3388949499999
 31
0.0
 70
   160
  1
%%c310
  3
ISO-25
100
AcDbAlignedDimension
 13
880.4874975905228
 23
578.0000000000039
 33
0.0
 14
1190.4874975905
 24
578.0
 34
0.0
100
AcDbRotatedDimension
1001
ACAD
1000
DSTYLE
1002
{
1070
   270
1070
     2
1070
     6
1000
EX_NORM
1070
     7
1000
EX_NORM
1070
    41
1040
15.0
1070
    42
1040
7.5
1070
    44
1040
7.5
1070
    73
1070
     0
1070
    74
1070
     0
1070
    75
1070
     0
1070
    76
1070
     0
1070
    77
1070
     1
1070
    78
1070
     8
1070
   140
1040
15.590552
1070
   147
1040
0.0
1070
   173
1070
     1
1070
   176
1070
     2
1070
   177
1070
     2
1070
   178
1070
     2
1070
   271
1070
     2
1070
   277
1070
     2
1070
   279
1070
     2
1070
   280
1070
     0
1070
   287
1070
     5
1070
   340
1005
1A9
1002
}
  0
DIMENSION
  5
1D2
330
1F
100
AcDbEntity
  8
外観図
  6
CONTINUOUS
 62
     2
100
AcDbDimension
  2
*D18
 10
838.0000000000002
 20
397.0
 30
0.0
 11
825.5000000000002
 21
487.5
 31
0.0
 70
   160
  3
ISO-25
100
AcDbAlignedDimension
 13
943.4874975905202
 23
578.0
 33
0.0
 14
956.4874975905202
 24
397.0
 34
0.0
 50
90.0
100
AcDbRotatedDimension
1001
ACAD
1000
DSTYLE
1002
{
1070
   270
1070
     2
1070
     6
1000
EX_NORM
1070
     7
1000
EX_NORM
1070
    41
1040
15.0
1070
    42
1040
7.5
1070
    44
1040
7.5
1070
    73
1070
     0
1070
    74
1070
     0
1070
    75
1070
     0
1070
    76
1070
     0
1070
    77
1070
     1
1070
    78
1070
     8
1070
   140
1040
15.590552
1070
   147
1040
0.0
1070
   173
1070
     1
1070
   176
1070
     2
1070
   177
1070
     2
1070
   178
1070
     2
1070
   271
1070
     2
1070
   277
1070
     2
1070
   279
1070
     2
1070
   280
1070
     0
1070
   287
1070
     5
1070
   340
1005
1A9
1002
}
  0
LINE
  5
1DF
330
1F
100
AcDbEntity
  8
外観図
  6
CONTINUOUS
 62
     7
100
AcDbLine
 10
364.7050686121933
 20
728.0150000000029
 30
0.0
 11
364.7050686121933
 21
428.0000000000034
 31
0.0
  0
ARC
  5
1E0
330
1F
100
AcDbEntity
  8
外観図
  6
CONTINUOUS
 62
     7
100
AcDbCircle
 10
359.7050686121933
 20
728.0150000000029
 30
0.0
 40
5.0
100
AcDbArc
 50
0.0
 51
90.00000000000001
  0
ARC
  5
1E1
330
1F
100
AcDbEntity
  8
外観図
  6
CONTINUOUS
 62
     7
100
AcDbCircle
 10
359.7050686121933
 20
728.0150000000029
 30
0.0
 40
5.0
100
AcDbArc
 50
90.00000000000001
 51
180.0
  0
ARC
  5
1E2
330
1F
100
AcDbEntity
  8
外観図
  6
CONTINUOUS
 62
     7
100
AcDbCircle
 10
359.7050686121933
 20
428.0000000000034
 30
0.0
 40
5.0
100
AcDbArc
 50
270.0
 51
0.0
  0
ARC
  5
1E3
330
1F
100
AcDbEntity
  8
外観図
  6
CONTINUOUS
 62
     7
100
AcDbCircle
 10
552.3340686121932
 20
241.9275000000034
 30
0.0
 40
269.5835
100
AcDbArc
 50
96.95399999999994
 51
134.1070000000001
  0
ARC
  5
1E4
330
1F
100
AcDbEntity
  8
外観図
  6
CONTINUOUS
 62
     7
100
AcDbCircle
 10
359.7050686121933
 20
428.0000000000034
 30
0.0
 40
5.0
100
AcDbArc
 50
180.0
 51
270.0
  0
LINE
  5
1E5
330
1F
100
AcDbEntity
  8
外観図
  6
CONTINUOUS
 62
     7
100
AcDbLine
 10
354.7050686121933
 20
428.0000000000034
 30
0.0
 11
354.7050686121933
 21
728.0150000000029
 31
0.0
  0
LINE
  5
1E6
330
1F
100
AcDbEntity
  8
外観図
  6
CONTINUOUS
 62
     7
100
AcDbLine
 10
569.755068612193
 20
397.0000000000039
 30
0.0
 11
519.755068612193
 21
397.0000000000039
 31
0.0
  0
ARC
  5
1E7
330
1F
100
AcDbEntity
  8
外観図
  6
CONTINUOUS
 62
     7
100
AcDbCircle
 10
544.755068612193
 20
562.7780000000039
 30
0.0
 40
39.222
100
AcDbArc
 50
50.40199999999989
 51
129.5980000000001
  0
ARC
  5
1E8
330
1F
100
AcDbEntity
  8
外観図
  6
CONTINUOUS
 62
     7
100
AcDbCircle
 10
552.3340686121932
 20
914.0150000000035
 30
0.0
 40
269.5835
100
AcDbArc
 50
225.8930000000001
 51
266.4740000000002
  0
LINE
  5
1E9
330
1F
100
AcDbEntity
  8
外観図
  6
CONTINUOUS
 62
     7
100
AcDbLine
 10
696.2075686121929
 20
618.5150000000035
 30
0.0
 11
696.2075686121929
 21
613.0120000000038
 31
0.0
  0
LINE
  5
1EA
330
1F
100
AcDbEntity
  8
外観図
  6
CONTINUOUS
 62
     7
100
AcDbLine
 10
696.2075686121929
 20
578.0015000000035
 30
0.0
 11
696.2075686121929
 21
613.3770000000036
 31
0.0
  0
LINE
  5
1EB
330
1F
100
AcDbEntity
  8
外観図
  6
CONTINUOUS
 62
     7
100
AcDbLine
 10
696.2075686121929
 20
613.3205000000034
 30
0.0
 11
696.2075686121929
 21
635.015000000003
 31
0.0
  0
LINE
  5
1EC
330
1F
100
AcDbEntity
  8
外観図
  6
CONTINUOUS
 62
     7
100
AcDbLine
 10
691.7525686121929
 20
520.5755000000038
 30
0.0
 11
692.2945686121933
 21
520.5755000000038
 31
0.0
  0
LINE
  5
1ED
330
1F
100
AcDbEntity
  8
外観図
  6
CONTINUOUS
 62
     7
100
AcDbLine
 10
692.2495686121932
 20
520.5755000000038
 30
0.0
 11
692.2040686121929
 21
520.5755000000038
 31
0.0
  0
LINE
  5
1EE
330
1F
100
AcDbEntity
  8
外観図
  6
CONTINUOUS
 62
     7
100
AcDbLine
 10
692.2945686121933
 20
520.0000000000039
 30
0.0
 11
695.2075686121927
 21
520.0000000000039
 31
0.0
  0
LINE
  5
1EF
330
1F
100
AcDbEntity
  8
外観図
  6
CONTINUOUS
 62
     7
100
AcDbLine
 10
691.7550686121925
 20
520.0000000000039
 30
0.0
 11
691.7550686121925
 21
578.1170000000034
 31
0.0
  0
LINE
  5
1F0
330
1F
100
AcDbEntity
  8
外観図
  6
CONTINUOUS
 62
     7
100
AcDbLine
 10
696.2075686121929
 20
577.9805000000035
 30
0.0
 11
696.2075686121929
 21
521.0000000000034
 31
0.0
  0
LINE
  5
1F1
330
1F
100
AcDbEntity
  8
外観図
  6
CONTINUOUS
 62
     7
100
AcDbLine
 10
692.2945686121933
 20
520.0000000000039
 30
0.0
 11
692.2945686121933
 21
578.1170000000034
 31
0.0
  0
ARC
  5
1F2
330
1F
100
AcDbEntity
  8
外観図
  6
CONTINUOUS
 62
     7
100
AcDbCircle
 10
695.2075686121927
 20
521.0000000000034
 30
0.0
 40
1.0
100
AcDbArc
 50
270.0
 51
0.0
  0
LINE
  5
1F3
330
1F
100
AcDbEntity
  8
外観図
  6
CONTINUOUS
 62
     7
100
AcDbLine
 10
691.7550686121925
 20
520.0000000000039
 30
0.0
 11
569.5170686121932
 21
514.2925000000034
 31
0.0
  0
LINE
  5
1F4
330
1F
100
AcDbEntity
  8
外観図
  6
CONTINUOUS
 62
     7
100
AcDbLine
 10
691.7525686121929
 20
635.515000000003
 30
0.0
 11
692.2945686121933
 21
635.515000000003
 31
0.0
  0
LINE
  5
1F5
330
1F
100
AcDbEntity
  8
外観図
  6
CONTINUOUS
 62
     7
100
AcDbLine
 10
692.2495686121932
 20
635.515000000003
 30
0.0
 11
692.2040686121929
 21
635.515000000003
 31
0.0
  0
LINE
  5
1F6
330
1F
100
AcDbEntity
  8
外観図
  6
CONTINUOUS
 62
     7
100
AcDbLine
 10
692.2945686121933
 20
636.0150000000035
 30
0.0
 11
695.2075686121927
 21
636.0150000000035
 31
0.0
  0
ARC
  5
1F7
330
1F
100
AcDbEntity
  8
外観図
  6
CONTINUOUS
 62
     7
100
AcDbCircle
 10
695.2075686121927
 20
635.015000000003
 30
0.0
 40
1.0
100
AcDbArc
 50
0.0
 51
90.00000000000001
  0
LINE
  5
1F8
330
1F
100
AcDbEntity
  8
外観図
  6
CONTINUOUS
 62
     7
100
AcDbLine
 10
691.7550686121925
 20
636.0150000000035
 30
0.0
 11
562.9175686121929
 21
642.0150000000035
 31
0.0
  0
LINE
  5
1F9
330
1F
100
AcDbEntity
  8
外観図
  6
CONTINUOUS
 62
     7
100
AcDbLine
 10
692.2945686121933
 20
636.0150000000035
 30
0.0
 11
692.2945686121933
 21
577.8835000000033
 31
0.0
  0
LINE
  5
1FA
330
1F
100
AcDbEntity
  8
外観図
  6
CONTINUOUS
 62
     7
100
AcDbLine
 10
560.2875686121932
 20
643.5150000000035
 30
0.0
 11
562.9600686121925
 21
642.0150000000035
 31
0.0
  0
LINE
  5
1FB
330
1F
100
AcDbEntity
  8
外観図
  6
CONTINUOUS
 62
     7
100
AcDbLine
 10
691.7550686121925
 20
636.0150000000035
 30
0.0
 11
691.7550686121925
 21
577.8835000000033
 31
0.0
  0
LINE
  5
1FC
330
1F
100
AcDbEntity
  8
外観図
  6
CONTINUOUS
 62
     7
100
AcDbLine
 10
560.2550686121925
 20
658.0150000000029
 30
0.0
 11
556.2550686121925
 21
658.0150000000029
 31
0.0
  0
LINE
  5
1FD
330
1F
100
AcDbEntity
  8
外観図
  6
CONTINUOUS
 62
     7
100
AcDbLine
 10
555.8675686121932
 20
658.0150000000029
 30
0.0
 11
536.2375686121931
 21
657.515000000003
 31
0.0
  0
ARC
  5
1FE
330
1F
100
AcDbEntity
  8
外観図
  6
CONTINUOUS
 62
     7
100
AcDbCircle
 10
536.2550686121925
 20
657.0150000000035
 30
0.0
 40
0.5
100
AcDbArc
 50
92.00000000000395
 51
180.0
  0
LINE
  5
1FF
330
1F
100
AcDbEntity
  8
外観図
  6
CONTINUOUS
 62
     7
100
AcDbLine
 10
519.755068612193
 20
397.0000000000039
 30
0.0
 11
519.755068612193
 21
551.0000000000034
 31
0.0
  0
LINE
  5
200
330
1F
100
AcDbEntity
  8
外観図
  6
CONTINUOUS
 62
     7
100
AcDbLine
 10
569.755068612193
 20
397.0000000000039
 30
0.0
 11
569.755068612193
 21
551.0000000000034
 31
0.0
  0
LINE
  5
201
330
1F
100
AcDbEntity
  8
外観図
  6
CONTINUOUS
 62
     7
100
AcDbLine
 10
535.7550686121925
 20
657.0150000000035
 30
0.0
 11
535.7550686121925
 21
600.9410000000034
 31
0.0
  0
LINE
  5
202
330
1F
100
AcDbEntity
  8
外観図
  6
CONTINUOUS
 62
     7
100
AcDbLine
 10
569.755068612193
 20
551.0000000000034
 30
0.0
 11
569.755068612193
 21
593.0000000000036
 31
0.0
  0
CIRCLE
  5
203
330
1F
100
AcDbEntity
  8
外観図
  6
CONTINUOUS
 62
     7
100
AcDbCircle
 10
544.755068612193
 20
578.0000000000039
 30
0.0
 40
9.25
  0
CIRCLE
  5
204
330
1F
100
AcDbEntity
  8
外観図
  6
CONTINUOUS
 62
     7
100
AcDbCircle
 10
544.755068612193
 20
578.0000000000039
 30
0.0
 40
8.450000000000008
  0
LINE
  5
205
330
1F
100
AcDbEntity
  8
外観図
  6
CONTINUOUS
 62
     7
100
AcDbLine
 10
519.755068612193
 20
551.0000000000034
 30
0.0
 11
519.755068612193
 21
593.0000000000036
 31
0.0
  0
LINE
  5
206
330
1F
100
AcDbEntity
  8
外観図
  6
CONTINUOUS
 62
     7
100
AcDbLine
 10
556.2550686121925
 20
658.0150000000029
 30
0.0
 11
556.2550686121925
 21
607.9890000000037
 31
0.0
  0
LINE
  5
207
330
1F
100
AcDbEntity
  8
外観図
  6
CONTINUOUS
 62
     7
100
AcDbLine
 10
555.8973336121929
 20
658.0157575000035
 30
0.0
 11
555.8973336121929
 21
600.3840525000032
 31
0.0
  0
LINE
  5
208
330
1F
100
AcDbEntity
  8
外観図
  6
CONTINUOUS
 62
     7
100
AcDbLine
 10
556.2550686121925
 20
658.0150000000029
 30
0.0
 11
556.2550686121925
 21
608.0960000000036
 31
0.0
  0
LINE
  5
209
330
1F
100
AcDbEntity
  8
外観図
  6
CONTINUOUS
 62
     7
100
AcDbLine
 10
556.2550686121925
 20
658.0150000000029
 30
0.0
 11
556.2550686121925
 21
600.2762050000038
 31
0.0
  0
ARC
  5
20A
330
1F
100
AcDbEntity
  8
外観図
  6
CONTINUOUS
 62
     7
100
AcDbCircle
 10
568.9255686121504
 20
637.0213999999605
 30
0.0
 40
1.2
100
AcDbArc
 50
0.0
 51
90.00000000000001
  0
ARC
  5
20B
330
1F
100
AcDbEntity
  8
外観図
  6
CONTINUOUS
 62
     7
100
AcDbCircle
 10
568.9255686121504
 20
638.2637999999606
 30
0.0
 40
1.2
100
AcDbArc
 50
0.0
 51
90.00000000000001
  0
LINE
  5
20C
330
1F
100
AcDbEntity
  8
外観図
  6
CONTINUOUS
 62
     7
100
AcDbLine
 10
560.2550686121925
 20
640.8491899999353
 30
0.0
 11
562.9564104689501
 21
639.4477999999608
 31
0.0
  0
LINE
  5
20D
330
1F
100
AcDbEntity
  8
外観図
  6
CONTINUOUS
 62
     7
100
AcDbLine
 10
568.9255686121504
 20
639.4637999999604
 30
0.0
 11
560.2550686121925
 21
639.4637999999604
 31
0.0
  0
LINE
  5
20E
330
1F
100
AcDbEntity
  8
外観図
  6
CONTINUOUS
 62
     7
100
AcDbLine
 10
562.9255686121932
 20
642.0150000000035
 30
0.0
 11
562.9255686121932
 21
639.4637999999359
 31
0.0
  0
LINE
  5
20F
330
1F
100
AcDbEntity
  8
外観図
  6
CONTINUOUS
 62
     7
100
AcDbLine
 10
562.9255686121504
 20
638.2213999999603
 30
0.0
 11
568.9255686121504
 21
638.2213999999603
 31
0.0
  0
LINE
  5
210
330
1F
100
AcDbEntity
  8
外観図
  6
CONTINUOUS
 62
     7
100
AcDbLine
 10
570.0807686121501
 20
616.6717999999601
 30
0.0
 11
562.9255686121932
 21
616.6717999999601
 31
0.0
  0
LINE
  5
211
330
1F
100
AcDbEntity
  8
外観図
  6
CONTINUOUS
 62
     7
100
AcDbLine
 10
560.2550686121925
 20
619.184709171634
 30
0.0
 11
562.9367686121499
 21
616.6612609313602
 31
0.0
  0
LINE
  5
212
330
1F
100
AcDbEntity
  8
外観図
  6
CONTINUOUS
 62
     7
100
AcDbLine
 10
562.9255686121932
 20
616.6717999999601
 30
0.0
 11
562.9255686121932
 21
597.613500000004
 31
0.0
  0
LINE
  5
213
330
1F
100
AcDbEntity
  8
外観図
  6
CONTINUOUS
 62
     7
100
AcDbLine
 10
565.6750686121931
 20
631.7573050000033
 30
0.0
 11
569.2045686121932
 21
631.7573050000033
 31
0.0
  0
LINE
  5
214
330
1F
100
AcDbEntity
  8
外観図
  6
CONTINUOUS
 62
     7
100
AcDbLine
 10
565.6750686121931
 20
634.5000225000035
 30
0.0
 11
569.2045686121932
 21
634.5000225000035
 31
0.0
  0
ARC
  5
215
330
1F
100
AcDbEntity
  8
外観図
  6
CONTINUOUS
 62
     7
100
AcDbCircle
 10
567.441648612193
 20
633.1286650000034
 30
0.0
 40
2.2335
100
AcDbArc
 50
322.1209999999984
 51
37.87899999999243
  0
ARC
  5
216
330
1F
100
AcDbEntity
  8
外観図
  6
CONTINUOUS
 62
     7
100
AcDbCircle
 10
568.9255686121504
 20
624.1365999999607
 30
0.0
 40
1.2
100
AcDbArc
 50
0.0
 51
90.00000000000001
  0
ARC
  5
217
330
1F
100
AcDbEntity
  8
外観図
  6
CONTINUOUS
 62
     7
100
AcDbCircle
 10
568.9255686121504
 20
625.9325999999601
 30
0.0
 40
1.2
100
AcDbArc
 50
0.0
 51
90.00000000000001
  0
LINE
  5
218
330
1F
100
AcDbEntity
  8
外観図
  6
CONTINUOUS
 62
     7
100
AcDbLine
 10
570.1255686121502
 20
616.6717999999601
 30
0.0
 11
570.1255686121502
 21
638.2637999999606
 31
0.0
  0
LINE
  5
219
330
1F
100
AcDbEntity
  8
外観図
  6
CONTINUOUS
 62
     7
100
AcDbLine
 10
562.9255686121504
 20
633.8149999999605
 30
0.0
 11
562.9255686121504
 21
627.1325999999608
 31
0.0
  0
LINE
  5
21A
330
1F
100
AcDbEntity
  8
外観図
  6
CONTINUOUS
 62
     7
100
AcDbLine
 10
562.9255686121504
 20
638.05979999996
 30
0.0
 11
562.9255686121504
 21
627.1485999999604
 31
0.0
  0
LINE
  5
21B
330
1F
100
AcDbEntity
  8
外観図
  6
CONTINUOUS
 62
     7
100
AcDbLine
 10
568.9255686121504
 20
627.1325999999608
 30
0.0
 11
562.9255686121932
 21
627.1325999999608
 31
0.0
  0
LINE
  5
21C
330
1F
100
AcDbEntity
  8
外観図
  6
CONTINUOUS
 62
     7
100
AcDbLine
 10
560.2550686121925
 20
625.3365999999605
 30
0.0
 11
568.9255686121504
 21
625.3365999999605
 31
0.0
  0
LINE
  5
21D
330
1F
100
AcDbEntity
  8
外観図
  6
CONTINUOUS
 62
     7
100
AcDbLine
 10
569.1991106185222
 20
623.5145850000031
 30
0.0
 11
569.1991111121932
 21
623.5145850000031
 31
0.0
  0
LINE
  5
21E
330
1F
100
AcDbEntity
  8
外観図
  6
CONTINUOUS
 62
     7
100
AcDbLine
 10
569.6755686121932
 20
633.1286650000034
 30
0.0
 11
569.6755686121932
 21
626.8693496996857
 31
0.0
  0
LINE
  5
21F
330
1F
100
AcDbEntity
  8
外観図
  6
CONTINUOUS
 62
     7
100
AcDbLine
 10
569.6755686121932
 20
625.0733496996863
 30
0.0
 11
569.6755686121932
 21
625.015000000003
 31
0.0
  0
ARC
  5
220
330
1F
100
AcDbEntity
  8
外観図
  6
CONTINUOUS
 62
     7
100
AcDbCircle
 10
561.4480686121932
 20
629.0150000000035
 30
0.0
 40
8.227
100
AcDbArc
 50
345.976838695848
 51
19.47099999999978
  0
LINE
  5
221
330
1F
100
AcDbEntity
  8
外観図
  6
CONTINUOUS
 62
     7
100
AcDbLine
 10
565.6750686121931
 20
634.5000225000035
 30
0.0
 11
565.6750686121931
 21
627.1325999999608
 31
0.0
  0
LINE
  5
222
330
1F
100
AcDbEntity
  8
外観図
  6
CONTINUOUS
 62
     7
100
AcDbLine
 10
562.9255686121932
 20
638.2213999999603
 30
0.0
 11
562.9255686121932
 21
627.1325999999608
 31
0.0
  0
LINE
  5
223
330
1F
100
AcDbEntity
  8
外観図
  6
CONTINUOUS
 62
     7
100
AcDbLine
 10
564.1755686121927
 20
635.015000000004
 30
0.0
 11
562.9255686121927
 21
635.015000000004
 31
0.0
  0
LINE
  5
224
330
1F
100
AcDbEntity
  8
外観図
  6
CONTINUOUS
 62
     7
100
AcDbLine
 10
565.6750686121921
 20
634.2573050000037
 30
0.0
 11
564.1750686121921
 21
634.2573050000037
 31
0.0
  0
LINE
  5
225
330
1F
100
AcDbEntity
  8
外観図
  6
CONTINUOUS
 62
     7
100
AcDbLine
 10
564.1750686121921
 20
628.7573050000037
 30
0.0
 11
565.6750686121921
 21
630.2573050000037
 31
0.0
  0
LINE
  5
226
330
1F
100
AcDbEntity
  8
外観図
  6
CONTINUOUS
 62
     7
100
AcDbLine
 10
565.6750686121921
 20
628.7573050000037
 30
0.0
 11
564.1750686121921
 21
627.2573050000037
 31
0.0
  0
LINE
  5
227
330
1F
100
AcDbEntity
  8
外観図
  6
CONTINUOUS
 62
     7
100
AcDbLine
 10
565.6750686121921
 20
627.1325999999608
 30
0.0
 11
565.6750686121921
 21
634.2573050000037
 31
0.0
  0
LINE
  5
228
330
1F
100
AcDbEntity
  8
外観図
  6
CONTINUOUS
 62
     7
100
AcDbLine
 10
564.1750686121921
 20
634.2573050000037
 30
0.0
 11
564.1750686121921
 21
627.1325999999608
 31
0.0
  0
LINE
  5
229
330
1F
100
AcDbEntity
  8
外観図
  6
CONTINUOUS
 62
     7
100
AcDbLine
 10
562.9255686121927
 20
635.015000000004
 30
0.0
 11
562.9255686121927
 21
627.1325999999608
 31
0.0
  0
LINE
  5
22A
330
1F
100
AcDbEntity
  8
外観図
  6
CONTINUOUS
 62
     7
100
AcDbLine
 10
564.1755686121927
 20
627.1325999999608
 30
0.0
 11
564.1755686121927
 21
635.015000000004
 31
0.0
  0
LINE
  5
22B
330
1F
100
AcDbEntity
  8
外観図
  6
CONTINUOUS
 62
     7
100
AcDbLine
 10
564.1750686121921
 20
623.7573050000037
 30
0.0
 11
564.1755686121927
 21
623.7573050000037
 31
0.0
  0
CIRCLE
  5
22C
330
1F
100
AcDbEntity
  8
外観図
  6
CONTINUOUS
 62
     7
100
AcDbCircle
 10
544.7550686121925
 20
578.0000000000043
 30
0.0
 40
7.5
  0
LINE
  5
22D
330
1F
100
AcDbEntity
  8
外観図
  6
CONTINUOUS
 62
     7
100
AcDbLine
 10
544.7550686121925
 20
586.6605000000043
 30
0.0
 11
537.2550686121925
 21
582.3305000000041
 31
0.0
  0
LINE
  5
22E
330
1F
100
AcDbEntity
  8
外観図
  6
CONTINUOUS
 62
     7
100
AcDbLine
 10
537.2550686121925
 20
582.3305000000041
 30
0.0
 11
537.2550686121925
 21
573.6700000000042
 31
0.0
  0
LINE
  5
22F
330
1F
100
AcDbEntity
  8
外観図
  6
CONTINUOUS
 62
     7
100
AcDbLine
 10
537.2550686121925
 20
573.6700000000042
 30
0.0
 11
544.7550686121925
 21
569.3400000000042
 31
0.0
  0
LINE
  5
230
330
1F
100
AcDbEntity
  8
外観図
  6
CONTINUOUS
 62
     7
100
AcDbLine
 10
544.7550686121925
 20
569.3400000000042
 30
0.0
 11
552.2550686121925
 21
573.6700000000042
 31
0.0
  0
LINE
  5
231
330
1F
100
AcDbEntity
  8
外観図
  6
CONTINUOUS
 62
     7
100
AcDbLine
 10
552.2550686121925
 20
573.6700000000042
 30
0.0
 11
552.2550686121925
 21
582.3305000000041
 31
0.0
  0
LINE
  5
232
330
1F
100
AcDbEntity
  8
外観図
  6
CONTINUOUS
 62
     7
100
AcDbLine
 10
552.2550686121925
 20
582.3305000000041
 30
0.0
 11
544.7550686121925
 21
586.6605000000043
 31
0.0
  0
LINE
  5
233
330
1F
100
AcDbEntity
  8
外観図
  6
CONTINUOUS
 62
     7
100
AcDbLine
 10
696.2075686121918
 20
609.3875000000025
 30
0.0
 11
696.2075686121924
 21
617.8875000000025
 31
0.0
  0
LINE
  5
234
330
1F
100
AcDbEntity
  8
外観図
  6
CONTINUOUS
 62
     7
100
AcDbLine
 10
696.2075686121924
 20
538.4207075000027
 30
0.0
 11
696.2075686121924
 21
542.8202075000027
 31
0.0
  0
LINE
  5
235
330
1F
100
AcDbEntity
  8
外観図
  6
CONTINUOUS
 62
     7
100
AcDbLine
 10
560.2550686121925
 20
658.0150000000029
 30
0.0
 11
560.2550686121925
 21
639.4637999999604
 31
0.0
  0
LINE
  5
236
330
1F
100
AcDbEntity
  8
外観図
  6
CONTINUOUS
 62
     7
100
AcDbLine
 10
560.2550686121925
 20
625.3365999999605
 30
0.0
 11
560.2550686121925
 21
598.6970000000033
 31
0.0
  0
LINE
  5
237
330
1F
100
AcDbEntity
  8
外観図
  6
CONTINUOUS
 62
     7
100
AcDbLine
 10
940.4874975905228
 20
507.2385000000038
 30
0.0
 11
940.4874975905228
 21
492.2385000000038
 31
0.0
  0
LINE
  5
238
330
1F
100
AcDbEntity
  8
外観図
  6
CONTINUOUS
 62
     7
100
AcDbLine
 10
940.4874975905228
 20
521.7500000000039
 30
0.0
 11
939.9874975905228
 21
521.7500000000039
 31
0.0
  0
LINE
  5
239
330
1F
100
AcDbEntity
  8
外観図
  6
CONTINUOUS
 62
     7
100
AcDbLine
 10
940.4874975905228
 20
551.7500000000039
 30
0.0
 11
940.4874975905228
 21
521.7500000000039
 31
0.0
  0
LINE
  5
23A
330
1F
100
AcDbEntity
  8
外観図
  6
CONTINUOUS
 62
     7
100
AcDbLine
 10
939.9874975905228
 20
551.7500000000039
 30
0.0
 11
940.4874975905228
 21
551.7500000000039
 31
0.0
  0
LINE
  5
23B
330
1F
100
AcDbEntity
  8
外観図
  6
CONTINUOUS
 62
     7
100
AcDbLine
 10
939.9874975905228
 20
521.7500000000039
 30
0.0
 11
939.9874975905228
 21
551.7500000000039
 31
0.0
  0
LINE
  5
23C
330
1F
100
AcDbEntity
  8
外観図
  6
CONTINUOUS
 62
     7
100
AcDbLine
 10
943.4874975905228
 20
591.5000000000036
 30
0.0
 11
943.4874975905228
 21
602.0000000000036
 31
0.0
  0
LINE
  5
23D
330
1F
100
AcDbEntity
  8
外観図
  6
CONTINUOUS
 62
     7
100
AcDbLine
 10
947.4874975905228
 20
591.5000000000036
 30
0.0
 11
947.4874975905228
 21
599.243000000004
 31
0.0
  0
LINE
  5
23E
330
1F
100
AcDbEntity
  8
外観図
  6
CONTINUOUS
 62
     7
100
AcDbLine
 10
943.4874975905228
 20
591.5000000000036
 30
0.0
 11
943.4874975905228
 21
598.9335000000037
 31
0.0
  0
LINE
  5
23F
330
1F
100
AcDbEntity
  8
外観図
  6
CONTINUOUS
 62
     7
100
AcDbLine
 10
940.4874975905228
 20
591.5000000000036
 30
0.0
 11
940.4874975905228
 21
602.0000000000036
 31
0.0
  0
ARC
  5
240
330
1F
100
AcDbEntity
  8
外観図
  6
CONTINUOUS
 62
     7
100
AcDbCircle
 10
944.9874975905228
 20
557.0000000000034
 30
0.0
 40
1.5
100
AcDbArc
 50
180.0
 51
270.0
  0
ARC
  5
241
330
1F
100
AcDbEntity
  8
外観図
  6
CONTINUOUS
 62
     7
100
AcDbCircle
 10
944.9874975905228
 20
599.0000000000036
 30
0.0
 40
1.5
100
AcDbArc
 50
90.00000000000001
 51
180.0
  0
ARC
  5
242
330
1F
100
AcDbEntity
  8
外観図
  6
CONTINUOUS
 62
     7
100
AcDbCircle
 10
945.9874975905228
 20
557.0000000000034
 30
0.0
 40
1.5
100
AcDbArc
 50
270.0
 51
0.0
  0
ARC
  5
243
330
1F
100
AcDbEntity
  8
外観図
  6
CONTINUOUS
 62
     7
100
AcDbCircle
 10
945.9874975905228
 20
599.0000000000036
 30
0.0
 40
1.5
100
AcDbArc
 50
0.0
 51
90.00000000000001
  0
LINE
  5
244
330
1F
100
AcDbEntity
  8
外観図
  6
CONTINUOUS
 62
     7
100
AcDbLine
 10
943.4874975905228
 20
557.0000000000034
 30
0.0
 11
943.4874975905228
 21
591.5000000000036
 31
0.0
  0
LINE
  5
245
330
1F
100
AcDbEntity
  8
外観図
  6
CONTINUOUS
 62
     7
100
AcDbLine
 10
944.9874975905228
 20
600.5000000000041
 30
0.0
 11
945.9874975905228
 21
600.5000000000041
 31
0.0
  0
LINE
  5
246
330
1F
100
AcDbEntity
  8
外観図
  6
CONTINUOUS
 62
     7
100
AcDbLine
 10
945.9874975905228
 20
555.5000000000039
 30
0.0
 11
944.9874975905228
 21
555.5000000000039
 31
0.0
  0
LINE
  5
247
330
1F
100
AcDbEntity
  8
外観図
  6
CONTINUOUS
 62
     7
100
AcDbLine
 10
947.4874975905228
 20
557.0000000000034
 30
0.0
 11
947.4874975905228
 21
591.5000000000036
 31
0.0
  0
ARC
  5
248
330
1F
100
AcDbEntity
  8
外観図
  6
CONTINUOUS
 62
     7
100
AcDbCircle
 10
956.4874975905229
 20
413.0000000000034
 30
0.0
 40
13.0
100
AcDbArc
 50
180.0
 51
270.0
  0
ARC
  5
249
330
1F
100
AcDbEntity
  8
外観図
  6
CONTINUOUS
 62
     7
100
AcDbCircle
 10
956.4874975905229
 20
413.0000000000034
 30
0.0
 40
16.0
100
AcDbArc
 50
180.0
 51
270.0
  0
ARC
  5
24A
330
1F
100
AcDbEntity
  8
外観図
  6
CONTINUOUS
 62
     7
100
AcDbCircle
 10
1114.487497590523
 20
413.0000000000034
 30
0.0
 40
16.0
100
AcDbArc
 50
270.0
 51
0.0
  0
ARC
  5
24B
330
1F
100
AcDbEntity
  8
外観図
  6
CONTINUOUS
 62
     7
100
AcDbCircle
 10
1114.487497590523
 20
413.0000000000034
 30
0.0
 40
13.0
100
AcDbArc
 50
270.0
 51
0.0
  0
LINE
  5
24C
330
1F
100
AcDbEntity
  8
外観図
  6
CONTINUOUS
 62
     7
100
AcDbLine
 10
943.4874975905228
 20
602.0000000000036
 30
0.0
 11
940.4874975905228
 21
602.0000000000036
 31
0.0
  0
LINE
  5
24D
330
1F
100
AcDbEntity
  8
外観図
  6
CONTINUOUS
 62
     7
100
AcDbLine
 10
940.4874975905228
 20
413.0000000000034
 30
0.0
 11
940.4874975905228
 21
451.670000000004
 31
0.0
  0
LINE
  5
24E
330
1F
100
AcDbEntity
  8
外観図
  6
CONTINUOUS
 62
     7
100
AcDbLine
 10
1114.487497590523
 20
400.0000000000039
 30
0.0
 11
956.4874975905229
 21
400.0000000000039
 31
0.0
  0
LINE
  5
24F
330
1F
100
AcDbEntity
  8
外観図
  6
CONTINUOUS
 62
     7
100
AcDbLine
 10
1114.487497590523
 20
397.0000000000039
 30
0.0
 11
956.4874975905229
 21
397.0000000000039
 31
0.0
  0
LINE
  5
250
330
1F
100
AcDbEntity
  8
外観図
  6
CONTINUOUS
 62
     7
100
AcDbLine
 10
940.4874975905228
 20
451.670000000004
 30
0.0
 11
940.4874975905228
 21
591.5000000000036
 31
0.0
  0
LINE
  5
251
330
1F
100
AcDbEntity
  8
外観図
  6
CONTINUOUS
 62
     7
100
AcDbLine
 10
943.4874975905228
 20
564.5000000000034
 30
0.0
 11
943.4874975905228
 21
452.1355000000035
 31
0.0
  0
ARC
  5
252
330
1F
100
AcDbEntity
  8
外観図
  6
CONTINUOUS
 62
     7
100
AcDbCircle
 10
1035.487497590523
 20
578.0000000000039
 30
0.0
 40
155.0
100
AcDbArc
 50
180.0
 51
232.1999999999998
  0
ARC
  5
253
330
1F
100
AcDbEntity
  8
外観図
  6
CONTINUOUS
 62
     7
100
AcDbCircle
 10
1035.487497590523
 20
578.0000000000039
 30
0.0
 40
155.0
100
AcDbArc
 50
233.6439999999999
 51
306.4089999999998
  0
ARC
  5
254
330
1F
100
AcDbEntity
  8
外観図
  6
CONTINUOUS
 62
     7
100
AcDbCircle
 10
1035.487497590523
 20
578.0000000000039
 30
0.0
 40
147.5
100
AcDbArc
 50
232.013
 51
308.7239999999999
  0
LINE
  5
255
330
1F
100
AcDbEntity
  8
外観図
  6
CONTINUOUS
 62
     7
100
AcDbLine
 10
935.987497590523
 20
587.8150000000046
 30
0.0
 11
929.487497590523
 21
587.8150000000046
 31
0.0
  0
LINE
  5
256
330
1F
100
AcDbEntity
  8
外観図
  6
CONTINUOUS
 62
     7
100
AcDbLine
 10
935.987497590523
 20
582.9075000000043
 30
0.0
 11
929.487497590523
 21
582.9075000000043
 31
0.0
  0
LINE
  5
257
330
1F
100
AcDbEntity
  8
外観図
  6
CONTINUOUS
 62
     7
100
AcDbLine
 10
935.987497590523
 20
573.0930000000046
 30
0.0
 11
929.487497590523
 21
573.0930000000046
 31
0.0
  0
LINE
  5
258
330
1F
100
AcDbEntity
  8
外観図
  6
CONTINUOUS
 62
     7
100
AcDbLine
 10
935.987497590523
 20
568.1855000000046
 30
0.0
 11
929.487497590523
 21
568.1855000000046
 31
0.0
  0
LINE
  5
259
330
1F
100
AcDbEntity
  8
外観図
  6
CONTINUOUS
 62
     7
100
AcDbLine
 10
935.987497590523
 20
568.1855000000046
 30
0.0
 11
935.987497590523
 21
587.8150000000046
 31
0.0
  0
ARC
  5
25A
330
1F
100
AcDbEntity
  8
外観図
  6
CONTINUOUS
 62
     7
100
AcDbCircle
 10
932.9874975905233
 20
570.6390000000042
 30
0.0
 40
3.996500000000001
100
AcDbArc
 50
142.1210000000007
 51
217.8789999999993
  0
ARC
  5
25B
330
1F
100
AcDbEntity
  8
外観図
  6
CONTINUOUS
 62
     7
100
AcDbCircle
 10
932.9874975905233
 20
585.3615000000043
 30
0.0
 40
3.996500000000001
100
AcDbArc
 50
142.1210000000007
 51
217.8789999999993
  0
ARC
  5
25C
330
1F
100
AcDbEntity
  8
外観図
  6
CONTINUOUS
 62
     7
100
AcDbCircle
 10
943.487497590523
 20
578.0000000000043
 30
0.0
 40
14.7225
100
AcDbArc
 50
160.5290000000003
 51
199.4709999999998
  0
LINE
  5
25D
330
1F
100
AcDbEntity
  8
外観図
  6
CONTINUOUS
 62
     7
100
AcDbLine
 10
928.987497590523
 20
570.6390000000042
 30
0.0
 11
928.987497590523
 21
585.3615000000043
 31
0.0
  0
LINE
  5
25E
330
1F
100
AcDbEntity
  8
外観図
  6
CONTINUOUS
 62
     7
100
AcDbLine
 10
935.987497590523
 20
578.0000000000043
 30
0.0
 11
938.487497590523
 21
580.5000000000043
 31
0.0
  0
LINE
  5
25F
330
1F
100
AcDbEntity
  8
外観図
  6
CONTINUOUS
 62
     7
100
AcDbLine
 10
938.487497590523
 20
578.0000000000043
 30
0.0
 11
935.987497590523
 21
575.5000000000043
 31
0.0
  0
LINE
  5
260
330
1F
100
AcDbEntity
  8
外観図
  6
CONTINUOUS
 62
     7
100
AcDbLine
 10
935.987497590523
 20
568.8000000000043
 30
0.0
 11
938.487497590523
 21
568.8000000000043
 31
0.0
  0
LINE
  5
261
330
1F
100
AcDbEntity
  8
外観図
  6
CONTINUOUS
 62
     7
100
AcDbLine
 10
935.987497590523
 20
587.2000000000046
 30
0.0
 11
935.987497590523
 21
568.8000000000043
 31
0.0
  0
LINE
  5
262
330
1F
100
AcDbEntity
  8
外観図
  6
CONTINUOUS
 62
     7
100
AcDbLine
 10
938.487497590523
 20
587.2000000000046
 30
0.0
 11
935.987497590523
 21
587.2000000000046
 31
0.0
  0
LINE
  5
263
330
1F
100
AcDbEntity
  8
外観図
  6
CONTINUOUS
 62
     7
100
AcDbLine
 10
938.487497590523
 20
568.8000000000043
 30
0.0
 11
938.487497590523
 21
587.2000000000046
 31
0.0
  0
LINE
  5
264
330
1F
100
AcDbEntity
  8
外観図
  6
CONTINUOUS
 62
     7
100
AcDbLine
 10
940.487497590523
 20
567.5000000000043
 30
0.0
 11
940.487497590523
 21
588.5000000000045
 31
0.0
  0
LINE
  5
265
330
1F
100
AcDbEntity
  8
外観図
  6
CONTINUOUS
 62
     7
100
AcDbLine
 10
938.487497590523
 20
567.5000000000043
 30
0.0
 11
940.487497590523
 21
567.5000000000043
 31
0.0
  0
LINE
  5
266
330
1F
100
AcDbEntity
  8
外観図
  6
CONTINUOUS
 62
     7
100
AcDbLine
 10
938.487497590523
 20
588.5000000000045
 30
0.0
 11
938.487497590523
 21
567.5000000000043
 31
0.0
  0
LINE
  5
267
330
1F
100
AcDbEntity
  8
外観図
  6
CONTINUOUS
 62
     7
100
AcDbLine
 10
940.487497590523
 20
588.5000000000045
 30
0.0
 11
938.487497590523
 21
588.5000000000045
 31
0.0
  0
LINE
  5
268
330
1F
100
AcDbEntity
  8
外観図
  6
CONTINUOUS
 62
     7
100
AcDbLine
 10
943.4874975905228
 20
413.0000000000034
 30
0.0
 11
943.4874975905228
 21
452.1355000000035
 31
0.0
  0
LINE
  5
269
330
1F
100
AcDbEntity
  8
外観図
  6
CONTINUOUS
 62
     7
100
AcDbLine
 10
703.7075686121929
 20
578.0009899999966
 30
0.0
 11
703.7075686121929
 21
565.5009899999966
 31
0.0
  0
LINE
  5
26A
330
1F
100
AcDbEntity
  8
外観図
  6
CONTINUOUS
 62
     7
100
AcDbLine
 10
703.7075686121929
 20
565.5009899999966
 30
0.0
 11
703.2075686121929
 21
565.5009899999966
 31
0.0
  0
LINE
  5
26B
330
1F
100
AcDbEntity
  8
外観図
  6
CONTINUOUS
 62
     7
100
AcDbLine
 10
703.2075686121929
 20
565.5009899999966
 30
0.0
 11
703.2075686121929
 21
578.0009899999966
 31
0.0
  0
LINE
  5
26C
330
1F
100
AcDbEntity
  8
外観図
  6
CONTINUOUS
 62
     7
100
AcDbLine
 10
703.7075686121929
 20
590.5034899999966
 30
0.0
 11
703.7075686121929
 21
578.0034899999966
 31
0.0
  0
LINE
  5
26D
330
1F
100
AcDbEntity
  8
外観図
  6
CONTINUOUS
 62
     7
100
AcDbLine
 10
703.2075686121929
 20
578.0034899999966
 30
0.0
 11
703.2075686121929
 21
590.5034899999966
 31
0.0
  0
LINE
  5
26E
330
1F
100
AcDbEntity
  8
外観図
  6
CONTINUOUS
 62
     7
100
AcDbLine
 10
703.2075686121929
 20
590.5034899999966
 30
0.0
 11
703.7075686121929
 21
590.5034899999966
 31
0.0
  0
LINE
  5
26F
330
1F
100
AcDbEntity
  8
外観図
  6
CONTINUOUS
 62
     7
100
AcDbLine
 10
703.7075686121929
 20
575.3759899999961
 30
0.0
 11
703.7075686121929
 21
580.6259899999966
 31
0.0
  0
LINE
  5
270
330
1F
100
AcDbEntity
  8
外観図
  6
CONTINUOUS
 62
     7
100
AcDbLine
 10
704.6708536121931
 20
575.4491999999966
 30
0.0
 11
703.7075686121929
 21
575.3759899999961
 31
0.0
  0
ARC
  5
271
330
1F
100
AcDbEntity
  8
外観図
  6
CONTINUOUS
 62
     7
100
AcDbCircle
 10
704.7075686121929
 20
576.3984899999962
 30
0.0
 40
0.95
100
AcDbArc
 50
267.785155999995
 51
344.6379999999938
  0
ARC
  5
272
330
1F
100
AcDbEntity
  8
外観図
  6
CONTINUOUS
 62
     7
100
AcDbCircle
 10
698.873728612193
 20
578.0012449999967
 30
0.0
 40
7.0
100
AcDbArc
 50
344.638
 51
15.36199999999995
  0
ARC
  5
273
330
1F
100
AcDbEntity
  8
外観図
  6
CONTINUOUS
 62
     7
100
AcDbCircle
 10
704.7075686121929
 20
579.6039899999967
 30
0.0
 40
0.95
100
AcDbArc
 50
15.36200000000614
 51
92.22454099999474
  0
LINE
  5
274
330
1F
100
AcDbEntity
  8
外観図
  6
CONTINUOUS
 62
     7
100
AcDbLine
 10
703.7075686121929
 20
580.6259899999966
 30
0.0
 11
704.6706936121931
 21
580.5532724999962
 31
0.0
  0
LINE
  5
275
330
1F
100
AcDbEntity
  8
外観図
  6
CONTINUOUS
 62
     7
100
AcDbLine
 10
703.2075686121929
 20
578.0222824999958
 30
0.0
 11
703.2075686121929
 21
539.5207824999964
 31
0.0
  0
ARC
  5
276
330
1F
100
AcDbEntity
  8
外観図
  6
CONTINUOUS
 62
     7
100
AcDbCircle
 10
698.2075686121927
 20
533.8405949999958
 30
0.0
 40
2.0
100
AcDbArc
 50
105.2550000000035
 51
180.0
  0
LINE
  5
277
330
1F
100
AcDbEntity
  8
外観図
  6
CONTINUOUS
 62
     7
100
AcDbLine
 10
697.6813386121925
 20
535.7701249999957
 30
0.0
 11
701.024311112193
 21
536.6335674999962
 31
0.0
  0
ARC
  5
278
330
1F
100
AcDbEntity
  8
外観図
  6
CONTINUOUS
 62
     7
100
AcDbCircle
 10
700.2075686121927
 20
539.5207824999964
 30
0.0
 40
3.000000000000001
100
AcDbArc
 50
285.2550000000015
 51
0.0
  0
LINE
  5
279
330
1F
100
AcDbEntity
  8
外観図
  6
CONTINUOUS
 62
     7
100
AcDbLine
 10
701.029453612193
 20
545.1817499999959
 30
0.0
 11
701.029453612193
 21
539.5522499999959
 31
0.0
  0
LINE
  5
27A
330
1F
100
AcDbEntity
  8
外観図
  6
CONTINUOUS
 62
     7
100
AcDbLine
 10
696.2075686121938
 20
625.0357824999955
 30
0.0
 11
701.7075686121929
 21
625.0357824999955
 31
0.0
  0
ARC
  5
27B
330
1F
100
AcDbEntity
  8
外観図
  6
CONTINUOUS
 62
     7
100
AcDbCircle
 10
701.7075686121929
 20
623.5357824999958
 30
0.0
 40
1.5
100
AcDbArc
 50
0.0
 51
90.00000000000001
  0
ARC
  5
27C
330
1F
100
AcDbEntity
  8
外観図
  6
CONTINUOUS
 62
     7
100
AcDbCircle
 10
701.7075686121929
 20
597.7472824999959
 30
0.0
 40
1.5
100
AcDbArc
 50
0.0
 51
90.00000000000001
  0
ARC
  5
27D
330
1F
100
AcDbEntity
  8
外観図
  6
CONTINUOUS
 62
     7
100
AcDbCircle
 10
701.7075686121929
 20
611.6822824999958
 30
0.0
 40
1.5
100
AcDbArc
 50
0.0
 51
90.00000000000001
  0
ARC
  5
27E
330
1F
100
AcDbEntity
  8
外観図
  6
CONTINUOUS
 62
     7
100
AcDbCircle
 10
701.7075686121929
 20
621.5357824999958
 30
0.0
 40
1.5
100
AcDbArc
 50
0.0
 51
90.00000000000001
  0
ARC
  5
27F
330
1F
100
AcDbEntity
  8
外観図
  6
CONTINUOUS
 62
     7
100
AcDbCircle
 10
701.7075686121929
 20
609.6822824999954
 30
0.0
 40
1.5
100
AcDbArc
 50
0.0
 51
90.00000000000001
  0
LINE
  5
280
330
1F
100
AcDbEntity
  8
外観図
  6
CONTINUOUS
 62
     7
100
AcDbLine
 10
703.2075686121938
 20
590.5222824999955
 30
0.0
 11
703.2075686121938
 21
578.0222824999955
 31
0.0
  0
LINE
  5
281
330
1F
100
AcDbEntity
  8
外観図
  6
CONTINUOUS
 62
     7
100
AcDbLine
 10
703.2075686121938
 20
578.0222824999955
 30
0.0
 11
703.2075686121938
 21
623.5357824999958
 31
0.0
  0
LINE
  5
282
330
1F
100
AcDbEntity
  8
外観図
  6
CONTINUOUS
 62
     7
100
AcDbLine
 10
701.0293611121932
 20
616.1487824999958
 30
0.0
 11
701.0293611121932
 21
613.1822824999958
 31
0.0
  0
LINE
  5
283
330
1F
100
AcDbEntity
  8
外観図
  6
CONTINUOUS
 62
     7
100
AcDbLine
 10
698.2075686121923
 20
613.3547824999973
 30
0.0
 11
698.2075686121923
 21
613.1822824999974
 31
0.0
  0
LINE
  5
284
330
1F
100
AcDbEntity
  8
外観図
  6
CONTINUOUS
 62
     7
100
AcDbLine
 10
697.2075686121924
 20
613.3547824999973
 30
0.0
 11
698.2075686121923
 21
614.3547824999973
 31
0.0
  0
LINE
  5
285
330
1F
100
AcDbEntity
  8
外観図
  6
CONTINUOUS
 62
     7
100
AcDbLine
 10
698.2075686121923
 20
617.2047824999975
 30
0.0
 11
697.2075686121924
 21
617.2047824999975
 31
0.0
  0
LINE
  5
286
330
1F
100
AcDbEntity
  8
外観図
  6
CONTINUOUS
 62
     7
100
AcDbLine
 10
698.2075686121923
 20
613.1822824999974
 30
0.0
 11
698.2075686121923
 21
617.2047824999975
 31
0.0
  0
LINE
  5
287
330
1F
100
AcDbEntity
  8
外観図
  6
CONTINUOUS
 62
     7
100
AcDbLine
 10
697.2075686121924
 20
617.2047824999975
 30
0.0
 11
697.2075686121924
 21
613.1822824999974
 31
0.0
  0
LINE
  5
288
330
1F
100
AcDbEntity
  8
外観図
  6
CONTINUOUS
 62
     7
100
AcDbLine
 10
697.2075686121924
 20
617.5817824999974
 30
0.0
 11
696.2075686121924
 21
617.5817824999974
 31
0.0
  0
LINE
  5
289
330
1F
100
AcDbEntity
  8
外観図
  6
CONTINUOUS
 62
     7
100
AcDbLine
 10
697.2075686121924
 20
613.1822824999974
 30
0.0
 11
697.2075686121924
 21
617.5817824999974
 31
0.0
  0
LINE
  5
28A
330
1F
100
AcDbEntity
  8
外観図
  6
CONTINUOUS
 62
     7
100
AcDbLine
 10
698.207568612192
 20
545.8879899999977
 30
0.0
 11
698.2075686121923
 21
538.8879899999977
 31
0.0
  0
LINE
  5
28B
330
1F
100
AcDbEntity
  8
外観図
  6
CONTINUOUS
 62
     7
100
AcDbLine
 10
698.207568612192
 20
542.3879899999977
 30
0.0
 11
697.2075686121924
 21
541.3879899999977
 31
0.0
  0
LINE
  5
28C
330
1F
100
AcDbEntity
  8
外観図
  6
CONTINUOUS
 62
     7
100
AcDbLine
 10
697.207568612192
 20
542.3879899999977
 30
0.0
 11
698.207568612192
 21
543.3879899999977
 31
0.0
  0
LINE
  5
28D
330
1F
100
AcDbEntity
  8
外観図
  6
CONTINUOUS
 62
     7
100
AcDbLine
 10
698.207568612192
 20
546.2379899999976
 30
0.0
 11
697.207568612192
 21
546.2379899999976
 31
0.0
  0
LINE
  5
28E
330
1F
100
AcDbEntity
  8
外観図
  6
CONTINUOUS
 62
     7
100
AcDbLine
 10
698.2075686121923
 20
538.5379899999978
 30
0.0
 11
698.207568612192
 21
546.2379899999976
 31
0.0
  0
LINE
  5
28F
330
1F
100
AcDbEntity
  8
外観図
  6
CONTINUOUS
 62
     7
100
AcDbLine
 10
697.2075686121924
 20
538.5379899999978
 30
0.0
 11
698.2075686121923
 21
538.5379899999978
 31
0.0
  0
LINE
  5
290
330
1F
100
AcDbEntity
  8
外観図
  6
CONTINUOUS
 62
     7
100
AcDbLine
 10
697.207568612192
 20
546.2379899999976
 30
0.0
 11
697.2075686121924
 21
538.5379899999978
 31
0.0
  0
LINE
  5
291
330
1F
100
AcDbEntity
  8
外観図
  6
CONTINUOUS
 62
     7
100
AcDbLine
 10
697.207568612192
 20
546.6149899999975
 30
0.0
 11
696.2075686121918
 21
546.6149899999975
 31
0.0
  0
LINE
  5
292
330
1F
100
AcDbEntity
  8
外観図
  6
CONTINUOUS
 62
     7
100
AcDbLine
 10
697.2075686121924
 20
538.1149899999975
 30
0.0
 11
697.207568612192
 21
546.6149899999975
 31
0.0
  0
LINE
  5
293
330
1F
100
AcDbEntity
  8
外観図
  6
CONTINUOUS
 62
     7
100
AcDbLine
 10
696.2075686121924
 20
538.1149899999975
 30
0.0
 11
697.2075686121924
 21
538.1149899999975
 31
0.0
  0
LINE
  5
294
330
1F
100
AcDbEntity
  8
外観図
  6
CONTINUOUS
 62
     7
100
AcDbLine
 10
698.2075686121938
 20
616.7052824999957
 30
0.0
 11
698.2075686121938
 21
613.1822824999958
 31
0.0
  0
ARC
  5
295
330
1F
100
AcDbEntity
  8
外観図
  6
CONTINUOUS
 62
     7
100
AcDbCircle
 10
695.4004886121933
 20
613.3344699999955
 30
0.0
 40
5.629
100
AcDbArc
 50
358.4520000000008
 51
19.47099999999915
  0
ARC
  5
296
330
1F
100
AcDbEntity
  8
外観図
  6
CONTINUOUS
 62
     7
100
AcDbCircle
 10
699.5013611121929
 20
616.1487824999958
 30
0.0
 40
1.528
100
AcDbArc
 50
322.1209999999961
 51
37.87900000000401
  0
LINE
  5
297
330
1F
100
AcDbEntity
  8
外観図
  6
CONTINUOUS
 62
     7
100
AcDbLine
 10
698.168068612193
 20
617.0867824999955
 30
0.0
 11
698.168068612193
 21
613.1822824999958
 31
0.0
  0
LINE
  5
298
330
1F
100
AcDbEntity
  8
外観図
  6
CONTINUOUS
 62
     7
100
AcDbLine
 10
698.2075686121938
 20
617.0867824999955
 30
0.0
 11
700.7075686121938
 21
617.0867824999955
 31
0.0
  0
LINE
  5
299
330
1F
100
AcDbEntity
  8
外観図
  6
CONTINUOUS
 62
     7
100
AcDbLine
 10
698.2075686121938
 20
615.2107824999957
 30
0.0
 11
700.7075686121938
 21
615.2107824999957
 31
0.0
  0
LINE
  5
29A
330
1F
100
AcDbEntity
  8
外観図
  6
CONTINUOUS
 62
     7
100
AcDbLine
 10
701.7075686121929
 20
611.1822824999958
 30
0.0
 11
696.2075686121938
 21
611.1822824999958
 31
0.0
  0
LINE
  5
29B
330
1F
100
AcDbEntity
  8
外観図
  6
CONTINUOUS
 62
     7
100
AcDbLine
 10
696.2075686121938
 20
623.0357824999955
 30
0.0
 11
701.7075686121929
 21
623.0357824999955
 31
0.0
  0
LINE
  5
29C
330
1F
100
AcDbEntity
  8
外観図
  6
CONTINUOUS
 62
     7
100
AcDbLine
 10
696.2075686121938
 20
599.2472824999954
 30
0.0
 11
701.7075686121929
 21
599.2472824999954
 31
0.0
  0
LINE
  5
29D
330
1F
100
AcDbEntity
  8
外観図
  6
CONTINUOUS
 62
     7
100
AcDbLine
 10
701.7075686121929
 20
613.1822824999958
 30
0.0
 11
696.2075686121938
 21
613.1822824999958
 31
0.0
  0
ARC
  5
29E
330
1F
100
AcDbEntity
  8
外観図
  6
CONTINUOUS
 62
     7
100
AcDbCircle
 10
695.4004561121931
 20
542.3669899999961
 30
0.0
 40
5.629
100
AcDbArc
 50
340.5290000000034
 51
19.47099999999663
  0
ARC
  5
29F
330
1F
100
AcDbEntity
  8
外観図
  6
CONTINUOUS
 62
     7
100
AcDbCircle
 10
699.501826112193
 20
539.5524899999962
 30
0.0
 40
1.528
100
AcDbArc
 50
322.12099999999
 51
37.87900000000997
  0
ARC
  5
2A0
330
1F
100
AcDbEntity
  8
外観図
  6
CONTINUOUS
 62
     7
100
AcDbCircle
 10
699.5015036121926
 20
545.1818049999958
 30
0.0
 40
1.528
100
AcDbArc
 50
322.12099999999
 51
37.87900000000997
  0
LINE
  5
2A1
330
1F
100
AcDbEntity
  8
外観図
  6
CONTINUOUS
 62
     7
100
AcDbLine
 10
698.2075686121929
 20
546.1199899999958
 30
0.0
 11
698.2075686121929
 21
538.6144899999961
 31
0.0
  0
LINE
  5
2A2
330
1F
100
AcDbEntity
  8
外観図
  6
CONTINUOUS
 62
     7
100
AcDbLine
 10
698.2075686121929
 20
546.1199899999958
 30
0.0
 11
700.7075686121929
 21
546.1199899999958
 31
0.0
  0
LINE
  5
2A3
330
1F
100
AcDbEntity
  8
外観図
  6
CONTINUOUS
 62
     7
100
AcDbLine
 10
698.2075686121929
 20
544.2434899999955
 30
0.0
 11
700.7075686121929
 21
544.2434899999955
 31
0.0
  0
LINE
  5
2A4
330
1F
100
AcDbEntity
  8
外観図
  6
CONTINUOUS
 62
     7
100
AcDbLine
 10
698.2075686121929
 20
540.4909899999955
 30
0.0
 11
700.7075686121929
 21
540.4909899999955
 31
0.0
  0
LINE
  5
2A5
330
1F
100
AcDbEntity
  8
外観図
  6
CONTINUOUS
 62
     7
100
AcDbLine
 10
698.2075686121929
 20
538.6144899999961
 30
0.0
 11
700.7075686121929
 21
538.6144899999961
 31
0.0
  0
LINE
  5
2A6
330
1F
100
AcDbEntity
  8
外観図
  6
CONTINUOUS
 62
     7
100
AcDbLine
 10
985.4874975904775
 20
618.0150000000035
 30
0.0
 11
976.4874975904775
 21
627.5150000000035
 31
0.0
  0
LINE
  5
2A7
330
1F
100
AcDbEntity
  8
外観図
  6
CONTINUOUS
 62
     7
100
AcDbLine
 10
995.4874975904775
 20
628.0150000000035
 30
0.0
 11
985.9874975904775
 21
637.5150000000035
 31
0.0
  0
LINE
  5
2A8
330
1F
100
AcDbEntity
  8
外観図
  6
CONTINUOUS
 62
     7
100
AcDbLine
 10
1075.487497590477
 20
528.0420000000033
 30
0.0
 11
1084.987497590477
 21
518.6845000000039
 31
0.0
  0
ARC
  5
2A9
330
1F
100
AcDbEntity
  8
外観図
  6
CONTINUOUS
 62
     7
100
AcDbCircle
 10
1035.487497590478
 20
578.0000000000039
 30
0.0
 40
67.0
100
AcDbArc
 50
235.272
 51
308.9970000000002
  0
LINE
  5
2AA
330
1F
100
AcDbEntity
  8
外観図
  6
CONTINUOUS
 62
     7
100
AcDbLine
 10
985.4874975904775
 20
618.0150000000035
 30
0.0
 11
976.3168225904776
 21
627.6951575000035
 31
0.0
  0
LINE
  5
2AB
330
1F
100
AcDbEntity
  8
外観図
  6
CONTINUOUS
 62
     7
100
AcDbLine
 10
995.4874975904775
 20
628.0150000000035
 30
0.0
 11
985.9874975904775
 21
637.5150000000035
 31
0.0
  0
ARC
  5
2AC
330
1F
100
AcDbEntity
  8
外観図
  6
CONTINUOUS
 62
     7
100
AcDbCircle
 10
978.4569275904778
 20
629.7975275000035
 30
0.0
 40
3.000000000000001
100
AcDbArc
 50
147.5358740000028
 51
224.4903859999989
  0
ARC
  5
2AD
330
1F
100
AcDbEntity
  8
外観図
  6
CONTINUOUS
 62
     7
100
AcDbCircle
 10
983.9981750904775
 20
635.2712475000035
 30
0.0
 40
3.000000000000001
100
AcDbArc
 50
48.43131199999954
 51
126.3258620000001
  0
LINE
  5
2AE
330
1F
100
AcDbEntity
  8
外観図
  6
CONTINUOUS
 62
     7
100
AcDbLine
 10
946.0964750904776
 20
555.5039650000035
 30
0.0
 11
961.0964750904776
 21
547.9974650000033
 31
0.0
  0
LINE
  5
2AF
330
1F
100
AcDbEntity
  8
外観図
  6
CONTINUOUS
 62
     7
100
AcDbLine
 10
946.0956025904773
 20
600.4961000000035
 30
0.0
 11
961.0956025904773
 21
608.0026000000034
 31
0.0
  0
CIRCLE
  5
2B0
330
1F
100
AcDbEntity
  8
外観図
  6
CONTINUOUS
 62
     7
100
AcDbCircle
 10
1070.987497590477
 20
613.3935000000033
 30
0.0
 40
3.8
  0
CIRCLE
  5
2B1
330
1F
100
AcDbEntity
  8
外観図
  6
CONTINUOUS
 62
     7
100
AcDbCircle
 10
1070.987497590477
 20
613.3935000000033
 30
0.0
 40
4.5
  0
ARC
  5
2B2
330
1F
100
AcDbEntity
  8
外観図
  6
CONTINUOUS
 62
     7
100
AcDbCircle
 10
1035.487497590478
 20
578.0000000000039
 30
0.0
 40
41.0
100
AcDbArc
 50
125.2560000000002
 51
144.8920000000001
  0
LINE
  5
2B3
330
1F
100
AcDbEntity
  8
外観図
  6
CONTINUOUS
 62
     7
100
AcDbLine
 10
990.9874975904775
 20
612.5210000000038
 30
0.0
 11
1001.987497590478
 21
601.6140000000041
 31
0.0
  0
ARC
  5
2B4
330
1F
100
AcDbEntity
  8
外観図
  6
CONTINUOUS
 62
     7
100
AcDbCircle
 10
989.9874975904777
 20
611.4430000000038
 30
0.0
 40
1.5
100
AcDbArc
 50
45.95699999999805
 51
233.9799999999996
  0
CIRCLE
  5
2B5
330
1F
100
AcDbEntity
  8
外観図
  6
CONTINUOUS
 62
     7
100
AcDbCircle
 10
999.9874975904775
 20
613.3175000000037
 30
0.0
 40
3.8
  0
CIRCLE
  5
2B6
330
1F
100
AcDbEntity
  8
外観図
  6
CONTINUOUS
 62
     7
100
AcDbCircle
 10
999.9874975904775
 20
613.3175000000037
 30
0.0
 40
4.5
  0
CIRCLE
  5
2B7
330
1F
100
AcDbEntity
  8
外観図
  6
CONTINUOUS
 62
     7
100
AcDbCircle
 10
1000.487497590477
 20
542.6070000000034
 30
0.0
 40
3.8
  0
CIRCLE
  5
2B8
330
1F
100
AcDbEntity
  8
外観図
  6
CONTINUOUS
 62
     7
100
AcDbCircle
 10
1000.487497590477
 20
542.6070000000034
 30
0.0
 40
4.5
  0
CIRCLE
  5
2B9
330
1F
100
AcDbEntity
  8
外観図
  6
CONTINUOUS
 62
     7
100
AcDbCircle
 10
1070.987497590477
 20
542.6830000000039
 30
0.0
 40
3.8
  0
CIRCLE
  5
2BA
330
1F
100
AcDbEntity
  8
外観図
  6
CONTINUOUS
 62
     7
100
AcDbCircle
 10
1070.987497590477
 20
542.6830000000039
 30
0.0
 40
4.5
  0
CIRCLE
  5
2BB
330
1F
100
AcDbEntity
  8
外観図
  6
CONTINUOUS
 62
     7
100
AcDbCircle
 10
1059.487497590477
 20
578.0000000000039
 30
0.0
 40
1.9779
  0
LINE
  5
2BC
330
1F
100
AcDbEntity
  8
外観図
  6
CONTINUOUS
 62
     7
100
AcDbLine
 10
1007.987497590477
 20
553.0000000000039
 30
0.0
 11
1062.987497590477
 21
553.0000000000039
 31
0.0
  0
LINE
  5
2BD
330
1F
100
AcDbEntity
  8
外観図
  6
CONTINUOUS
 62
     7
100
AcDbLine
 10
1062.987497590477
 20
598.0000000000036
 30
0.0
 11
1007.987497590477
 21
598.0000000000036
 31
0.0
  0
LINE
  5
2BE
330
1F
100
AcDbEntity
  8
外観図
  6
CONTINUOUS
 62
     7
100
AcDbLine
 10
1007.987497590477
 20
598.0000000000036
 30
0.0
 11
1062.987497590477
 21
598.0000000000036
 31
0.0
  0
CIRCLE
  5
2BF
330
1F
100
AcDbEntity
  8
外観図
  6
CONTINUOUS
 62
     7
100
AcDbCircle
 10
1011.487497590477
 20
578.0000000000039
 30
0.0
 40
1.9779
  0
LINE
  5
2C0
330
1F
100
AcDbEntity
  8
外観図
  6
CONTINUOUS
 62
     7
100
AcDbLine
 10
1007.987497590477
 20
598.0000000000036
 30
0.0
 11
1007.987497590477
 21
553.0000000000039
 31
0.0
  0
LINE
  5
2C1
330
1F
100
AcDbEntity
  8
外観図
  6
CONTINUOUS
 62
     7
100
AcDbLine
 10
1062.987497590477
 20
598.0000000000036
 30
0.0
 11
1062.987497590477
 21
553.0000000000039
 31
0.0
  0
ARC
  5
2C2
330
1F
100
AcDbEntity
  8
外観図
  6
CONTINUOUS
 62
     7
100
AcDbCircle
 10
1035.487497590478
 20
578.0000000000039
 30
0.0
 40
67.0
100
AcDbArc
 50
141.006
 51
214.9352408328189
  0
LINE
  5
2C3
330
1F
100
AcDbEntity
  8
外観図
  6
CONTINUOUS
 62
     7
100
AcDbLine
 10
1000.728460603522
 20
622.5739171114351
 30
0.0
 11
1011.821040090477
 21
611.479825000004
 31
0.0
  0
ARC
  5
2C4
330
1F
100
AcDbEntity
  8
外観図
  6
CONTINUOUS
 62
     7
100
AcDbCircle
 10
1001.938123035418
 20
623.4608876864036
 30
0.0
 40
1.5
100
AcDbArc
 50
52.74754305237537
 51
216.2502890405372
  0
LINE
  5
2C5
330
1F
100
AcDbEntity
  8
外観図
  6
CONTINUOUS
 62
     7
100
AcDbLine
 10
979.4874975904776
 20
523.8100000000043
 30
0.0
 11
984.4874975904776
 21
520.9235000000042
 31
0.0
  0
LINE
  5
2C6
330
1F
100
AcDbEntity
  8
外観図
  6
CONTINUOUS
 62
     7
100
AcDbLine
 10
979.4874975904776
 20
529.5835000000043
 30
0.0
 11
979.4874975904776
 21
523.8100000000043
 31
0.0
  0
LINE
  5
2C7
330
1F
100
AcDbEntity
  8
外観図
  6
CONTINUOUS
 62
     7
100
AcDbLine
 10
984.4874975904776
 20
532.4705000000042
 30
0.0
 11
979.4874975904776
 21
529.5835000000043
 31
0.0
  0
LINE
  5
2C8
330
1F
100
AcDbEntity
  8
外観図
  6
CONTINUOUS
 62
     7
100
AcDbLine
 10
989.4874975904776
 20
529.5835000000043
 30
0.0
 11
984.4874975904776
 21
532.4705000000042
 31
0.0
  0
LINE
  5
2C9
330
1F
100
AcDbEntity
  8
外観図
  6
CONTINUOUS
 62
     7
100
AcDbLine
 10
989.4874975904776
 20
523.8100000000043
 30
0.0
 11
989.4874975904776
 21
529.5835000000043
 31
0.0
  0
LINE
  5
2CA
330
1F
100
AcDbEntity
  8
外観図
  6
CONTINUOUS
 62
     7
100
AcDbLine
 10
984.4874975904776
 20
520.9235000000042
 30
0.0
 11
989.4874975904776
 21
523.8100000000043
 31
0.0
  0
CIRCLE
  5
2CB
330
1F
100
AcDbEntity
  8
外観図
  6
CONTINUOUS
 62
     7
100
AcDbCircle
 10
984.4874975904776
 20
526.6970000000042
 30
0.0
 40
5.0
  0
LINE
  5
2CC
330
1F
100
AcDbEntity
  8
外観図
  6
CONTINUOUS
 62
     7
100
AcDbLine
 10
1080.987497590477
 20
526.7730000000042
 30
0.0
 11
1083.987497590477
 21
521.7730000000042
 31
0.0
  0
LINE
  5
2CD
330
1F
100
AcDbEntity
  8
外観図
  6
CONTINUOUS
 62
     7
100
AcDbLine
 10
1083.987497590477
 20
521.7730000000042
 30
0.0
 11
1089.987497590477
 21
521.7730000000042
 31
0.0
  0
LINE
  5
2CE
330
1F
100
AcDbEntity
  8
外観図
  6
CONTINUOUS
 62
     7
100
AcDbLine
 10
1089.987497590477
 20
521.7730000000042
 30
0.0
 11
1092.487497590477
 21
526.7730000000042
 31
0.0
  0
CIRCLE
  5
2CF
330
1F
100
AcDbEntity
  8
外観図
  6
CONTINUOUS
 62
     7
100
AcDbCircle
 10
984.4874975904776
 20
629.0150000000044
 30
0.0
 40
5.0
  0
LINE
  5
2D0
330
1F
100
AcDbEntity
  8
外観図
  6
CONTINUOUS
 62
     7
100
AcDbLine
 10
978.4874975904775
 20
629.0150000000044
 30
0.0
 11
981.4874975904775
 21
624.0150000000044
 31
0.0
  0
LINE
  5
2D1
330
1F
100
AcDbEntity
  8
外観図
  6
CONTINUOUS
 62
     7
100
AcDbLine
 10
981.4874975904775
 20
624.0150000000044
 30
0.0
 11
986.9874975904776
 21
624.0150000000044
 31
0.0
  0
LINE
  5
2D2
330
1F
100
AcDbEntity
  8
外観図
  6
CONTINUOUS
 62
     7
100
AcDbLine
 10
986.9874975904776
 20
624.0150000000044
 30
0.0
 11
989.9874975904775
 21
629.0150000000044
 31
0.0
  0
LINE
  5
2D3
330
1F
100
AcDbEntity
  8
外観図
  6
CONTINUOUS
 62
     7
100
AcDbLine
 10
989.9874975904775
 20
629.0150000000044
 30
0.0
 11
986.9874975904776
 21
634.0150000000044
 31
0.0
  0
LINE
  5
2D4
330
1F
100
AcDbEntity
  8
外観図
  6
CONTINUOUS
 62
     7
100
AcDbLine
 10
986.9874975904776
 20
634.0150000000044
 30
0.0
 11
981.4874975904775
 21
634.0150000000044
 31
0.0
  0
LINE
  5
2D5
330
1F
100
AcDbEntity
  8
外観図
  6
CONTINUOUS
 62
     7
100
AcDbLine
 10
981.4874975904775
 20
634.0150000000044
 30
0.0
 11
978.4874975904775
 21
629.0150000000044
 31
0.0
  0
LINE
  5
2D6
330
1F
100
AcDbEntity
  8
外観図
  6
CONTINUOUS
 62
     7
100
AcDbLine
 10
1074.987497590477
 20
613.3935000000042
 30
0.0
 11
1072.987497590477
 21
616.8935000000042
 31
0.0
  0
LINE
  5
2D7
330
1F
100
AcDbEntity
  8
外観図
  6
CONTINUOUS
 62
     7
100
AcDbLine
 10
1072.987497590477
 20
616.8935000000042
 30
0.0
 11
1068.987497590477
 21
616.8935000000042
 31
0.0
  0
LINE
  5
2D8
330
1F
100
AcDbEntity
  8
外観図
  6
CONTINUOUS
 62
     7
100
AcDbLine
 10
1068.987497590477
 20
616.8935000000042
 30
0.0
 11
1066.987497590477
 21
613.3935000000042
 31
0.0
  0
LINE
  5
2D9
330
1F
100
AcDbEntity
  8
外観図
  6
CONTINUOUS
 62
     7
100
AcDbLine
 10
1066.987497590477
 20
613.3935000000042
 30
0.0
 11
1068.987497590477
 21
609.8935000000042
 31
0.0
  0
LINE
  5
2DA
330
1F
100
AcDbEntity
  8
外観図
  6
CONTINUOUS
 62
     7
100
AcDbLine
 10
1068.987497590477
 20
609.8935000000042
 30
0.0
 11
1072.987497590477
 21
609.8935000000042
 31
0.0
  0
LINE
  5
2DB
330
1F
100
AcDbEntity
  8
外観図
  6
CONTINUOUS
 62
     7
100
AcDbLine
 10
1072.987497590477
 20
609.8935000000042
 30
0.0
 11
1074.987497590477
 21
613.3935000000042
 31
0.0
  0
CIRCLE
  5
2DC
330
1F
100
AcDbEntity
  8
外観図
  6
CONTINUOUS
 62
     7
100
AcDbCircle
 10
1070.987497590477
 20
613.3935000000042
 30
0.0
 40
3.5
  0
LINE
  5
2DD
330
1F
100
AcDbEntity
  8
外観図
  6
CONTINUOUS
 62
     7
100
AcDbLine
 10
1004.487497590478
 20
613.3175000000042
 30
0.0
 11
1001.987497590478
 21
616.8175000000042
 31
0.0
  0
LINE
  5
2DE
330
1F
100
AcDbEntity
  8
外観図
  6
CONTINUOUS
 62
     7
100
AcDbLine
 10
1001.987497590478
 20
616.8175000000042
 30
0.0
 11
997.9874975904775
 21
616.8175000000042
 31
0.0
  0
LINE
  5
2DF
330
1F
100
AcDbEntity
  8
外観図
  6
CONTINUOUS
 62
     7
100
AcDbLine
 10
997.9874975904775
 20
616.8175000000042
 30
0.0
 11
995.9874975904775
 21
613.3175000000042
 31
0.0
  0
LINE
  5
2E0
330
1F
100
AcDbEntity
  8
外観図
  6
CONTINUOUS
 62
     7
100
AcDbLine
 10
995.9874975904775
 20
613.3175000000042
 30
0.0
 11
997.9874975904775
 21
609.8175000000042
 31
0.0
  0
LINE
  5
2E1
330
1F
100
AcDbEntity
  8
外観図
  6
CONTINUOUS
 62
     7
100
AcDbLine
 10
997.9874975904775
 20
609.8175000000042
 30
0.0
 11
1001.987497590478
 21
609.8175000000042
 31
0.0
  0
LINE
  5
2E2
330
1F
100
AcDbEntity
  8
外観図
  6
CONTINUOUS
 62
     7
100
AcDbLine
 10
1001.987497590478
 20
609.8175000000042
 30
0.0
 11
1004.487497590478
 21
613.3175000000042
 31
0.0
  0
CIRCLE
  5
2E3
330
1F
100
AcDbEntity
  8
外観図
  6
CONTINUOUS
 62
     7
100
AcDbCircle
 10
999.9874975904775
 20
613.3175000000042
 30
0.0
 40
3.5
  0
LINE
  5
2E4
330
1F
100
AcDbEntity
  8
外観図
  6
CONTINUOUS
 62
     7
100
AcDbLine
 10
1004.487497590478
 20
542.6070000000043
 30
0.0
 11
1002.487497590477
 21
546.1070000000043
 31
0.0
  0
LINE
  5
2E5
330
1F
100
AcDbEntity
  8
外観図
  6
CONTINUOUS
 62
     7
100
AcDbLine
 10
1002.487497590477
 20
546.1070000000043
 30
0.0
 11
998.4874975904775
 21
546.1070000000043
 31
0.0
  0
LINE
  5
2E6
330
1F
100
AcDbEntity
  8
外観図
  6
CONTINUOUS
 62
     7
100
AcDbLine
 10
998.4874975904775
 20
546.1070000000043
 30
0.0
 11
996.4874975904775
 21
542.6070000000043
 31
0.0
  0
LINE
  5
2E7
330
1F
100
AcDbEntity
  8
外観図
  6
CONTINUOUS
 62
     7
100
AcDbLine
 10
996.4874975904775
 20
542.6070000000043
 30
0.0
 11
998.4874975904775
 21
539.1070000000043
 31
0.0
  0
LINE
  5
2E8
330
1F
100
AcDbEntity
  8
外観図
  6
CONTINUOUS
 62
     7
100
AcDbLine
 10
998.4874975904775
 20
539.1070000000043
 30
0.0
 11
1002.487497590477
 21
539.1070000000043
 31
0.0
  0
LINE
  5
2E9
330
1F
100
AcDbEntity
  8
外観図
  6
CONTINUOUS
 62
     7
100
AcDbLine
 10
1002.487497590477
 20
539.1070000000043
 30
0.0
 11
1004.487497590478
 21
542.6070000000043
 31
0.0
  0
CIRCLE
  5
2EA
330
1F
100
AcDbEntity
  8
外観図
  6
CONTINUOUS
 62
     7
100
AcDbCircle
 10
1000.487497590477
 20
542.6070000000043
 30
0.0
 40
3.5
  0
LINE
  5
2EB
330
1F
100
AcDbEntity
  8
外観図
  6
CONTINUOUS
 62
     7
100
AcDbLine
 10
1074.987497590477
 20
542.6830000000043
 30
0.0
 11
1072.987497590477
 21
546.1830000000043
 31
0.0
  0
LINE
  5
2EC
330
1F
100
AcDbEntity
  8
外観図
  6
CONTINUOUS
 62
     7
100
AcDbLine
 10
1072.987497590477
 20
546.1830000000043
 30
0.0
 11
1068.987497590477
 21
546.1830000000043
 31
0.0
  0
LINE
  5
2ED
330
1F
100
AcDbEntity
  8
外観図
  6
CONTINUOUS
 62
     7
100
AcDbLine
 10
1068.987497590477
 20
546.1830000000043
 30
0.0
 11
1066.987497590477
 21
542.6830000000043
 31
0.0
  0
LINE
  5
2EE
330
1F
100
AcDbEntity
  8
外観図
  6
CONTINUOUS
 62
     7
100
AcDbLine
 10
1066.987497590477
 20
542.6830000000043
 30
0.0
 11
1068.987497590477
 21
539.1830000000043
 31
0.0
  0
LINE
  5
2EF
330
1F
100
AcDbEntity
  8
外観図
  6
CONTINUOUS
 62
     7
100
AcDbLine
 10
1068.987497590477
 20
539.1830000000043
 30
0.0
 11
1072.987497590477
 21
539.1830000000043
 31
0.0
  0
LINE
  5
2F0
330
1F
100
AcDbEntity
  8
外観図
  6
CONTINUOUS
 62
     7
100
AcDbLine
 10
1072.987497590477
 20
539.1830000000043
 30
0.0
 11
1074.987497590477
 21
542.6830000000043
 31
0.0
  0
CIRCLE
  5
2F1
330
1F
100
AcDbEntity
  8
外観図
  6
CONTINUOUS
 62
     7
100
AcDbCircle
 10
1070.987497590477
 20
542.6830000000043
 30
0.0
 40
3.5
  0
ARC
  5
2F2
330
1F
100
AcDbEntity
  8
外観図
  6
CONTINUOUS
 62
     7
100
AcDbCircle
 10
973.2037372879074
 20
530.2190588656035
 30
0.0
 40
1.5
100
AcDbArc
 50
135.380000000008
 51
295.5162027109794
  0
LINE
  5
2F3
330
1F
100
AcDbEntity
  8
外観図
  6
CONTINUOUS
 62
     7
100
AcDbLine
 10
972.1460739811539
 20
531.2853005715367
 30
0.0
 11
982.7240625590474
 21
541.7781844231442
 31
0.0
  0
ARC
  5
2F4
330
1F
100
AcDbEntity
  8
外観図
  6
CONTINUOUS
 62
     7
100
AcDbCircle
 10
1035.487497590478
 20
578.0000000000039
 30
0.0
 40
41.0
100
AcDbArc
 50
305.5630163318511
 51
324.8174185554038
  0
ARC
  5
2F5
330
1F
100
AcDbEntity
  8
外観図
  6
CONTINUOUS
 62
     7
100
AcDbCircle
 10
1035.487497590478
 20
578.0000000000039
 30
0.0
 40
42.5
100
AcDbArc
 50
305.85963511982
 51
324.4764944670314
  0
ARC
  5
2F6
330
1F
100
AcDbEntity
  8
外観図
  6
CONTINUOUS
 62
     7
100
AcDbCircle
 10
1035.487497590478
 20
578.0000000000039
 30
0.0
 40
41.0
100
AcDbArc
 50
149.1139999999855
 51
300.8866934617675
  0
ARC
  5
2F7
330
1F
100
AcDbEntity
  8
外観図
  6
CONTINUOUS
 62
     7
100
AcDbCircle
 10
1035.487497590478
 20
578.0000000000039
 30
0.0
 40
42.5
100
AcDbArc
 50
148.4841639470108
 51
301.4053574714246
  0
LINE
  5
2F8
330
1F
100
AcDbEntity
  8
外観図
  6
CONTINUOUS
 62
     7
100
AcDbLine
 10
988.9874975904775
 20
610.3820000000042
 30
0.0
 11
1000.369111448781
 21
599.1146971330595
 31
0.0
  0
ARC
  5
2F9
330
1F
100
AcDbEntity
  8
外観図
  6
CONTINUOUS
 62
     7
100
AcDbCircle
 10
1035.487497590478
 20
578.0000000000039
 30
0.0
 40
42.5
100
AcDbArc
 50
125.593
 51
144.5539999999804
  0
ARC
  5
2FA
330
1F
100
AcDbEntity
  8
外観図
  6
CONTINUOUS
 62
     7
100
AcDbCircle
 10
1035.487497590478
 20
578.0000000000039
 30
0.0
 40
42.5
100
AcDbArc
 50
125.5929999999749
 51
144.554
  0
ARC
  5
2FB
330
1F
100
AcDbEntity
  8
外観図
  6
CONTINUOUS
 62
     7
100
AcDbCircle
 10
1035.487497590478
 20
578.0000000000039
 30
0.0
 40
42.5
100
AcDbArc
 50
328.9321425525376
 51
121.4057987800857
  0
ARC
  5
2FC
330
1F
100
AcDbEntity
  8
外観図
  6
CONTINUOUS
 62
     7
100
AcDbCircle
 10
1035.487497590478
 20
578.0000000000039
 30
0.0
 40
41.0
100
AcDbArc
 50
329.4912658318206
 51
120.8862203801968
  0
LINE
  5
2FD
330
1F
100
AcDbEntity
  8
外観図
  6
CONTINUOUS
 62
     7
100
AcDbLine
 10
1002.846115217689
 20
624.6548517549309
 30
0.0
 11
1014.440767804608
 21
613.1857238851476
 31
0.0
  0
LINE
  5
2FE
330
1F
100
AcDbEntity
  8
外観図
  6
CONTINUOUS
 62
     7
100
AcDbLine
 10
1080.16615795634
 20
543.3023501263251
 30
0.0
 11
1068.987497590477
 21
554.3865000000035
 31
0.0
  0
LINE
  5
2FF
330
1F
100
AcDbEntity
  8
外観図
  6
CONTINUOUS
 62
     7
100
AcDbLine
 10
1070.309768185291
 20
533.2452375830867
 30
0.0
 11
1059.333015718841
 21
544.6474698832362
 31
0.0
  0
LINE
  5
300
330
1F
100
AcDbEntity
  8
外観図
  6
CONTINUOUS
 62
     7
100
AcDbLine
 10
1068.21386600692
 20
531.2518952677262
 30
0.0
 11
1056.534517898199
 21
542.8144498953591
 31
0.0
  0
ARC
  5
301
330
1F
100
AcDbEntity
  8
外観図
  6
CONTINUOUS
 62
     7
100
AcDbCircle
 10
1068.987497590477
 20
532.5370000000034
 30
0.0
 40
1.5
100
AcDbArc
 50
238.9521072596957
 51
28.17449367087051
  0
LINE
  5
302
330
1F
100
AcDbEntity
  8
外観図
  6
CONTINUOUS
 62
     7
100
AcDbLine
 10
973.8428157527485
 20
528.8620110713914
 30
0.0
 11
984.4195133800321
 21
539.4246064351723
 31
0.0
  0
LINE
  5
303
330
1F
100
AcDbEntity
  8
外観図
  6
CONTINUOUS
 62
     7
100
AcDbLine
 10
986.801308664674
 20
516.5919076028188
 30
0.0
 11
997.0504129547928
 21
526.8278344731359
 31
0.0
  0
LINE
  5
304
330
1F
100
AcDbEntity
  8
外観図
  6
CONTINUOUS
 62
     7
100
AcDbLine
 10
988.3964881252584
 20
514.1390960018555
 30
0.0
 11
999.4099155872921
 21
525.1378388939404
 31
0.0
  0
ARC
  5
305
330
1F
100
AcDbEntity
  8
外観図
  6
CONTINUOUS
 62
     7
100
AcDbCircle
 10
987.8766556582675
 20
515.5461404952039
 30
0.0
 40
1.5
100
AcDbArc
 50
135.380000000008
 51
290.2767463374035
  0
ARC
  5
306
330
1F
100
AcDbEntity
  8
外観図
  6
CONTINUOUS
 62
     7
100
AcDbCircle
 10
1035.487497590478
 20
578.0000000000039
 30
0.0
 40
67.0
100
AcDbArc
 50
55.06475916707104
 51
129.0310000000003
  0
ARC
  5
307
330
1F
100
AcDbEntity
  8
外観図
  6
CONTINUOUS
 62
     7
100
AcDbCircle
 10
1087.116541824878
 20
520.7980000000034
 30
0.0
 40
3.000000000000001
100
AcDbArc
 50
224.7909999999989
 51
300.7682969443985
  0
ARC
  5
308
330
1F
100
AcDbEntity
  8
外観図
  6
CONTINUOUS
 62
     7
100
AcDbCircle
 10
1087.116541824878
 20
520.7980000000034
 30
0.0
 40
3.000000000000001
100
AcDbArc
 50
224.7909999999989
 51
300.7682969443985
  0
ARC
  5
309
330
1F
100
AcDbEntity
  8
外観図
  6
CONTINUOUS
 62
     7
100
AcDbCircle
 10
1125.987497590523
 20
599.0000000000036
 30
0.0
 40
1.5
100
AcDbArc
 50
0.0
 51
90.00000000000001
  0
ARC
  5
30A
330
1F
100
AcDbEntity
  8
外観図
  6
CONTINUOUS
 62
     7
100
AcDbCircle
 10
1125.987497590523
 20
557.0000000000034
 30
0.0
 40
1.5
100
AcDbArc
 50
270.0
 51
0.0
  0
ARC
  5
30B
330
1F
100
AcDbEntity
  8
外観図
  6
CONTINUOUS
 62
     7
100
AcDbCircle
 10
1124.987497590523
 20
557.0000000000034
 30
0.0
 40
1.5
100
AcDbArc
 50
180.0
 51
270.0
  0
ARC
  5
30C
330
1F
100
AcDbEntity
  8
外観図
  6
CONTINUOUS
 62
     7
100
AcDbCircle
 10
1124.987497590523
 20
599.0000000000036
 30
0.0
 40
1.5
100
AcDbArc
 50
90.00000000000001
 51
180.0
  0
LINE
  5
30D
330
1F
100
AcDbEntity
  8
外観図
  6
CONTINUOUS
 62
     7
100
AcDbLine
 10
1125.987497590523
 20
600.5000000000041
 30
0.0
 11
1124.987497590523
 21
600.5000000000041
 31
0.0
  0
LINE
  5
30E
330
1F
100
AcDbEntity
  8
外観図
  6
CONTINUOUS
 62
     7
100
AcDbLine
 10
1124.987497590523
 20
555.5000000000039
 30
0.0
 11
1125.987497590523
 21
555.5000000000039
 31
0.0
  0
ARC
  5
30F
330
1F
100
AcDbEntity
  8
外観図
  6
CONTINUOUS
 62
     7
100
AcDbCircle
 10
1035.487497590523
 20
578.0000000000039
 30
0.0
 40
147.5
100
AcDbArc
 50
310.096
 51
0.0
  0
ARC
  5
310
330
1F
100
AcDbEntity
  8
外観図
  6
CONTINUOUS
 62
     7
100
AcDbCircle
 10
1035.487497590523
 20
578.0000000000039
 30
0.0
 40
155.0
100
AcDbArc
 50
307.7999999999999
 51
0.0
  0
LINE
  5
311
330
1F
100
AcDbEntity
  8
外観図
  6
CONTINUOUS
 62
     7
100
AcDbLine
 10
1127.487497590523
 20
602.0000000000036
 30
0.0
 11
1130.487497590523
 21
602.0000000000036
 31
0.0
  0
ARC
  5
312
330
1F
100
AcDbEntity
  8
外観図
  6
CONTINUOUS
 62
     7
100
AcDbCircle
 10
1035.487497590523
 20
578.0000000000039
 30
0.0
 40
155.0
100
AcDbArc
 50
0.0
 51
180.3439999999999
  0
ARC
  5
313
330
1F
100
AcDbEntity
  8
外観図
  6
CONTINUOUS
 62
     7
100
AcDbCircle
 10
1035.487497590523
 20
578.0000000000039
 30
0.0
 40
147.5
100
AcDbArc
 50
0.0
 51
229.904
  0
CIRCLE
  5
314
330
1F
100
AcDbEntity
  8
外観図
  6
CONTINUOUS
 62
     7
100
AcDbCircle
 10
1035.487497590478
 20
578.0000000000039
 30
0.0
 40
58.00000000000001
  0
LINE
  5
315
330
1F
100
AcDbEntity
  8
外観図
  6
CONTINUOUS
 62
     7
100
AcDbLine
 10
1124.987497590478
 20
600.4420000000036
 30
0.0
 11
1109.987497590478
 21
607.9485000000036
 31
0.0
  0
LINE
  5
316
330
1F
100
AcDbEntity
  8
外観図
  6
CONTINUOUS
 62
     7
100
AcDbLine
 10
1124.987497590478
 20
555.5585000000035
 30
0.0
 11
1109.987497590478
 21
548.052000000004
 31
0.0
  0
ARC
  5
317
330
1F
100
AcDbEntity
  8
外観図
  6
CONTINUOUS
 62
     7
100
AcDbCircle
 10
1035.487497590478
 20
578.0000000000039
 30
0.0
 40
64.0
100
AcDbArc
 50
14.47799999999983
 51
345.5219999999999
  0
ARC
  5
318
330
1F
100
AcDbEntity
  8
外観図
  6
CONTINUOUS
 62
     7
100
AcDbCircle
 10
1101.487497590477
 20
536.4765000000039
 30
0.0
 40
2.0
100
AcDbArc
 50
239.9999999999995
 51
327.8349999999994
  0
ARC
  5
319
330
1F
100
AcDbEntity
  8
外観図
  6
CONTINUOUS
 62
     7
100
AcDbCircle
 10
1104.487497590478
 20
541.6750000000038
 30
0.0
 40
2.0
100
AcDbArc
 50
332.2439999999991
 51
59.99999999999945
  0
LINE
  5
31A
330
1F
100
AcDbEntity
  8
外観図
  6
CONTINUOUS
 62
     7
100
AcDbLine
 10
1111.987497590478
 20
530.9455000000034
 30
0.0
 11
1114.487497590478
 21
535.2760000000039
 31
0.0
  0
LINE
  5
31B
330
1F
100
AcDbEntity
  8
外観図
  6
CONTINUOUS
 62
     7
100
AcDbLine
 10
1114.487497590478
 20
535.2760000000039
 30
0.0
 11
1105.987497590478
 21
540.2760000000039
 31
0.0
  0
LINE
  5
31C
330
1F
100
AcDbEntity
  8
外観図
  6
CONTINUOUS
 62
     7
100
AcDbLine
 10
1105.987497590478
 20
540.2760000000039
 30
0.0
 11
1103.487497590477
 21
535.9455000000034
 31
0.0
  0
LINE
  5
31D
330
1F
100
AcDbEntity
  8
外観図
  6
CONTINUOUS
 62
     7
100
AcDbLine
 10
1103.487497590477
 20
535.9455000000034
 30
0.0
 11
1111.987497590478
 21
530.9455000000034
 31
0.0
  0
LINE
  5
31E
330
1F
100
AcDbEntity
  8
外観図
  6
CONTINUOUS
 62
     7
100
AcDbLine
 10
1097.487497590477
 20
561.7335000000035
 30
0.0
 11
1097.487497590477
 21
594.0005000000037
 31
0.0
  0
LINE
  5
31F
330
1F
100
AcDbEntity
  8
外観図
  6
CONTINUOUS
 62
     7
100
AcDbLine
 10
1105.727036845867
 20
539.8248298981891
 30
0.0
 11
1101.650593057188
 21
544.6355431243039
 31
0.0
  0
LINE
  5
320
330
1F
100
AcDbEntity
  8
外観図
  6
CONTINUOUS
 62
     7
100
AcDbLine
 10
1103.90502648461
 20
536.6687435504186
 30
0.0
 11
1097.413728325048
 21
537.6848813777035
 31
0.0
  0
LINE
  5
321
330
1F
100
AcDbEntity
  8
外観図
  6
CONTINUOUS
 62
     7
100
AcDbLine
 10
1105.487497590478
 20
543.4070000000036
 30
0.0
 11
1093.315327256151
 21
550.5784370219774
 31
0.0
  0
LINE
  5
322
330
1F
100
AcDbEntity
  8
外観図
  6
CONTINUOUS
 62
     7
100
AcDbLine
 10
1100.487497590477
 20
534.7445000000039
 30
0.0
 11
1088.3356683741
 21
541.9019274084499
 31
0.0
  0
ARC
  5
323
330
1F
100
AcDbEntity
  8
外観図
  6
CONTINUOUS
 62
     7
100
AcDbCircle
 10
1035.487497590478
 20
578.0000000000039
 30
0.0
 40
67.0
100
AcDbArc
 50
321.0417600140733
 51
325.8369227145553
  0
CIRCLE
  5
324
330
1F
100
AcDbEntity
  8
外観図
  6
CONTINUOUS
 62
     7
100
AcDbCircle
 10
1086.987497590477
 20
526.7730000000042
 30
0.0
 40
5.0
  0
LINE
  5
325
330
1F
100
AcDbEntity
  8
外観図
  6
CONTINUOUS
 62
     7
100
AcDbLine
 10
1092.487497590477
 20
526.7730000000042
 30
0.0
 11
1089.987497590477
 21
531.7730000000042
 31
0.0
  0
LINE
  5
326
330
1F
100
AcDbEntity
  8
外観図
  6
CONTINUOUS
 62
     7
100
AcDbLine
 10
1089.987497590477
 20
531.7730000000042
 30
0.0
 11
1083.987497590477
 21
531.7730000000042
 31
0.0
  0
LINE
  5
327
330
1F
100
AcDbEntity
  8
外観図
  6
CONTINUOUS
 62
     7
100
AcDbLine
 10
1083.987497590477
 20
531.7730000000042
 30
0.0
 11
1080.987497590477
 21
526.7730000000042
 31
0.0
  0
CIRCLE
  5
328
330
1F
100
AcDbEntity
  8
外観図
  6
CONTINUOUS
 62
     7
100
AcDbCircle
 10
1086.987497590477
 20
629.5150000000044
 30
0.0
 40
5.0
  0
LINE
  5
329
330
1F
100
AcDbEntity
  8
外観図
  6
CONTINUOUS
 62
     7
100
AcDbLine
 10
1080.987497590477
 20
629.5150000000044
 30
0.0
 11
1083.987497590477
 21
624.5150000000044
 31
0.0
  0
LINE
  5
32A
330
1F
100
AcDbEntity
  8
外観図
  6
CONTINUOUS
 62
     7
100
AcDbLine
 10
1083.987497590477
 20
624.5150000000044
 30
0.0
 11
1089.487497590477
 21
624.5150000000044
 31
0.0
  0
LINE
  5
32B
330
1F
100
AcDbEntity
  8
外観図
  6
CONTINUOUS
 62
     7
100
AcDbLine
 10
1089.487497590477
 20
624.5150000000044
 30
0.0
 11
1092.487497590477
 21
629.5150000000044
 31
0.0
  0
LINE
  5
32C
330
1F
100
AcDbEntity
  8
外観図
  6
CONTINUOUS
 62
     7
100
AcDbLine
 10
1092.487497590477
 20
629.5150000000044
 30
0.0
 11
1089.487497590477
 21
634.5150000000044
 31
0.0
  0
LINE
  5
32D
330
1F
100
AcDbEntity
  8
外観図
  6
CONTINUOUS
 62
     7
100
AcDbLine
 10
1089.487497590477
 20
634.5150000000044
 30
0.0
 11
1083.987497590477
 21
634.5150000000044
 31
0.0
  0
LINE
  5
32E
330
1F
100
AcDbEntity
  8
外観図
  6
CONTINUOUS
 62
     7
100
AcDbLine
 10
1083.987497590477
 20
634.5150000000044
 30
0.0
 11
1080.987497590477
 21
629.5150000000044
 31
0.0
  0
LINE
  5
32F
330
1F
100
AcDbEntity
  8
外観図
  6
CONTINUOUS
 62
     7
100
AcDbLine
 10
1082.284352642974
 20
545.3112685140818
 30
0.0
 11
1070.811120623224
 21
557.1855421439755
 31
0.0
  0
ARC
  5
330
330
1F
100
AcDbEntity
  8
外観図
  6
CONTINUOUS
 62
     7
100
AcDbCircle
 10
1080.987497590477
 20
544.5575000000035
 30
0.0
 40
1.5
100
AcDbArc
 50
236.8002374223602
 51
30.16635491988967
  0
LINE
  5
331
330
1F
100
AcDbEntity
  8
外観図
  6
CONTINUOUS
 62
     7
100
AcDbLine
 10
1082.202197019016
 20
641.341423609203
 30
0.0
 11
1071.70931316739
 21
630.7634350313283
 31
0.0
  0
LINE
  5
332
330
1F
100
AcDbEntity
  8
外観図
  6
CONTINUOUS
 62
     7
100
AcDbLine
 10
1084.625486519158
 20
639.6446818376039
 30
0.0
 11
1074.062891155359
 21
629.0679842103395
 31
0.0
  0
ARC
  5
333
330
1F
100
AcDbEntity
  8
外観図
  6
CONTINUOUS
 62
     7
100
AcDbCircle
 10
1083.268438724947
 20
640.2837603024473
 30
0.0
 40
1.5
100
AcDbArc
 50
334.4837972889157
 51
134.6199999998907
  0
LINE
  5
334
330
1F
100
AcDbEntity
  8
外観図
  6
CONTINUOUS
 62
     7
100
AcDbLine
 10
1096.895589987708
 20
626.6861889256566
 30
0.0
 11
1086.659663117372
 21
616.437084635556
 31
0.0
  0
LINE
  5
335
330
1F
100
AcDbEntity
  8
外観図
  6
CONTINUOUS
 62
     7
100
AcDbLine
 10
1099.348401588669
 20
625.0910094650676
 30
0.0
 11
1088.349658696564
 21
614.0775820030535
 31
0.0
  0
ARC
  5
336
330
1F
100
AcDbEntity
  8
外観図
  6
CONTINUOUS
 62
     7
100
AcDbCircle
 10
1097.941357095321
 20
625.6108419320612
 30
0.0
 40
1.5
100
AcDbArc
 50
339.7232536624933
 51
134.6199999998938
  0
LINE
  5
337
330
1F
100
AcDbEntity
  8
外観図
  6
CONTINUOUS
 62
     7
100
AcDbLine
 10
1085.487497590477
 20
537.9415000000038
 30
0.0
 11
1095.47093732253
 21
528.1078118639318
 31
0.0
  0
ARC
  5
338
330
1F
100
AcDbEntity
  8
外観図
  6
CONTINUOUS
 62
     7
100
AcDbCircle
 10
1092.930735594438
 20
526.5117619961036
 30
0.0
 40
3.000000000000001
100
AcDbArc
 50
336.1122929413001
 51
32.14181142040634
  0
LINE
  5
339
330
1F
100
AcDbEntity
  8
外観図
  6
CONTINUOUS
 62
     7
100
AcDbLine
 10
1096.298720839308
 20
541.3922627884042
 30
0.0
 11
1096.298720839308
 21
542.1922627884044
 31
0.0
  0
LINE
  5
33A
330
1F
100
AcDbEntity
  8
外観図
  6
CONTINUOUS
 62
     7
100
AcDbLine
 10
1100.298720839308
 20
542.1922627884044
 30
0.0
 11
1100.298720839308
 21
541.3922627884042
 31
0.0
  0
ARC
  5
33B
330
1F
100
AcDbEntity
  8
外観図
  6
CONTINUOUS
 62
     7
100
AcDbCircle
 10
1099.018720839308
 20
541.0722627884043
 30
0.0
 40
0.32
100
AcDbArc
 50
90.00000000000001
 51
180.0
  0
LINE
  5
33C
330
1F
100
AcDbEntity
  8
外観図
  6
CONTINUOUS
 62
     7
100
AcDbLine
 10
1100.298720839308
 20
541.3922627884042
 30
0.0
 11
1099.01872083931
 21
541.3922627884042
 31
0.0
  0
LINE
  5
33D
330
1F
100
AcDbEntity
  8
外観図
  6
CONTINUOUS
 62
     7
100
AcDbLine
 10
1099.01916956912
 20
542.1922627884044
 30
0.0
 11
1100.298720839308
 21
542.1922627884044
 31
0.0
  0
ARC
  5
33E
330
1F
100
AcDbEntity
  8
外観図
  6
CONTINUOUS
 62
     7
100
AcDbCircle
 10
1099.019169569118
 20
542.5122627884043
 30
0.0
 40
0.32
100
AcDbArc
 50
180.0
 51
270.0000000004885
  0
LINE
  5
33F
330
1F
100
AcDbEntity
  8
外観図
  6
CONTINUOUS
 62
     7
100
AcDbLine
 10
1097.898720839266
 20
543.7922627883574
 30
0.0
 11
1098.698720839266
 21
543.7922627883574
 31
0.0
  0
LINE
  5
340
330
1F
100
AcDbEntity
  8
外観図
  6
CONTINUOUS
 62
     7
100
AcDbLine
 10
1098.698720839266
 20
543.7922627883574
 30
0.0
 11
1098.698720839266
 21
542.51226278836
 31
0.0
  0
LINE
  5
341
330
1F
100
AcDbEntity
  8
外観図
  6
CONTINUOUS
 62
     7
100
AcDbLine
 10
1097.898720839266
 20
542.5127115181699
 30
0.0
 11
1097.898720839266
 21
543.7922627883574
 31
0.0
  0
LINE
  5
342
330
1F
100
AcDbEntity
  8
外観図
  6
CONTINUOUS
 62
     7
100
AcDbLine
 10
1098.698720839355
 20
539.7922627883622
 30
0.0
 11
1097.898720839354
 21
539.7922627883622
 31
0.0
  0
LINE
  5
343
330
1F
100
AcDbEntity
  8
外観図
  6
CONTINUOUS
 62
     7
100
AcDbLine
 10
1097.898720839354
 20
539.7922627883622
 30
0.0
 11
1097.898720839354
 21
541.0722627883599
 31
0.0
  0
LINE
  5
344
330
1F
100
AcDbEntity
  8
外観図
  6
CONTINUOUS
 62
     7
100
AcDbLine
 10
1098.698720839355
 20
541.0718140585495
 30
0.0
 11
1098.698720839355
 21
539.7922627883622
 31
0.0
  0
LINE
  5
345
330
1F
100
AcDbEntity
  8
外観図
  6
CONTINUOUS
 62
     7
100
AcDbLine
 10
1097.5782721095
 20
542.1922627884044
 30
0.0
 11
1096.298720839313
 21
542.1922627884044
 31
0.0
  0
ARC
  5
346
330
1F
100
AcDbEntity
  8
外観図
  6
CONTINUOUS
 62
     7
100
AcDbCircle
 10
1097.578272109503
 20
542.5122627884043
 30
0.0
 40
0.32
100
AcDbArc
 50
270.0
 51
0.0
  0
ARC
  5
347
330
1F
100
AcDbEntity
  8
外観図
  6
CONTINUOUS
 62
     7
100
AcDbCircle
 10
1097.578720839313
 20
541.0722627884043
 30
0.0
 40
0.32
100
AcDbArc
 50
0.0
 51
90.00000000000001
  0
LINE
  5
348
330
1F
100
AcDbEntity
  8
外観図
  6
CONTINUOUS
 62
     7
100
AcDbLine
 10
1096.298720839313
 20
541.3922627884042
 30
0.0
 11
1097.57872083931
 21
541.3922627884042
 31
0.0
  0
CIRCLE
  5
349
330
1F
100
AcDbEntity
  8
外観図
  6
CONTINUOUS
 62
     7
100
AcDbCircle
 10
1098.487497590477
 20
541.7970000000034
 30
0.0
 40
3.5
  0
CIRCLE
  5
34A
330
1F
100
AcDbEntity
  8
外観図
  6
CONTINUOUS
 62
     7
100
AcDbCircle
 10
1098.487497590477
 20
541.7970000000034
 30
0.0
 40
4.25
  0
LINE
  5
34B
330
1F
100
AcDbEntity
  8
外観図
  6
CONTINUOUS
 62
     7
100
AcDbLine
 10
1097.481706349999
 20
594.0256548910099
 30
0.0
 11
1097.481706349999
 21
561.7576548910099
 31
0.0
  0
ARC
  5
34C
330
1F
100
AcDbEntity
  8
外観図
  6
CONTINUOUS
 62
     7
100
AcDbCircle
 10
1125.013706349999
 20
599.0256548910099
 30
0.0
 40
1.5
100
AcDbArc
 50
90.00000000000001
 51
180.0000000000002
  0
ARC
  5
34D
330
1F
100
AcDbEntity
  8
外観図
  6
EXLTYPE1
 62
     7
100
AcDbCircle
 10
1125.013706349999
 20
557.0256548910099
 30
0.0
 40
1.5
100
AcDbArc
 50
180.0000000000002
 51
270.0
  0
ARC
  5
34E
330
1F
100
AcDbEntity
  8
外観図
  6
CONTINUOUS
 62
     7
100
AcDbCircle
 10
1126.013706349999
 20
599.0256548910099
 30
0.0
 40
1.5
100
AcDbArc
 50
0.0
 51
90.00000000000001
  0
ARC
  5
34F
330
1F
100
AcDbEntity
  8
外観図
  6
EXLTYPE1
 62
     7
100
AcDbCircle
 10
1126.013706349999
 20
557.0256548910099
 30
0.0
 40
1.5
100
AcDbArc
 50
270.0
 51
0.0
  0
LINE
  5
350
330
1F
100
AcDbEntity
  8
外観図
  6
CONTINUOUS
 62
     7
100
AcDbLine
 10
1102.481706349999
 20
561.0376548910101
 30
0.0
 11
1102.481706349999
 21
578.0256548910099
 31
0.0
  0
LINE
  5
351
330
1F
100
AcDbEntity
  8
外観図
  6
CONTINUOUS
 62
     7
100
AcDbLine
 10
1105.481706349999
 20
578.0256548910099
 30
0.0
 11
1105.481706349999
 21
561.0256548910099
 31
0.0
  0
LINE
  5
352
330
1F
100
AcDbEntity
  8
外観図
  6
CONTINUOUS
 62
     7
100
AcDbLine
 10
1110.481706349999
 20
559.0256548910099
 30
0.0
 11
1110.481706349999
 21
578.0256548910099
 31
0.0
  0
LINE
  5
353
330
1F
100
AcDbEntity
  8
外観図
  6
CONTINUOUS
 62
     7
100
AcDbLine
 10
1105.401706349999
 20
567.0256548910099
 30
0.0
 11
1102.513706349999
 21
567.0256548910099
 31
0.0
  0
LINE
  5
354
330
1F
100
AcDbEntity
  8
外観図
  6
CONTINUOUS
 62
     7
100
AcDbLine
 10
1129.481706349999
 20
560.1256548910098
 30
0.0
 11
1129.481706349999
 21
578.0256548910099
 31
0.0
  0
LINE
  5
355
330
1F
100
AcDbEntity
  8
外観図
  6
CONTINUOUS
 62
     7
100
AcDbLine
 10
1135.481706349999
 20
578.0256548910099
 30
0.0
 11
1135.481706349999
 21
559.0256548910099
 31
0.0
  0
LINE
  5
356
330
1F
100
AcDbEntity
  8
外観図
  6
CONTINUOUS
 62
     7
100
AcDbLine
 10
1155.481706349999
 20
559.0256548910099
 30
0.0
 11
1155.481706349999
 21
578.0256548910099
 31
0.0
  0
LINE
  5
357
330
1F
100
AcDbEntity
  8
外観図
  6
CONTINUOUS
 62
     7
100
AcDbLine
 10
1175.481706349999
 20
578.0256548910099
 30
0.0
 11
1175.481706349999
 21
560.0256548910099
 31
0.0
  0
LINE
  5
358
330
1F
100
AcDbEntity
  8
外観図
  6
CONTINUOUS
 62
     7
100
AcDbLine
 10
1188.481706349999
 20
566.5256548910099
 30
0.0
 11
1188.481706349999
 21
578.0256548910099
 31
0.0
  0
LINE
  5
359
330
1F
100
AcDbEntity
  8
外観図
  6
CONTINUOUS
 62
     7
100
AcDbLine
 10
1175.481706349999
 20
565.5256548910099
 30
0.0
 11
1187.481706349999
 21
565.5256548910099
 31
0.0
  0
LINE
  5
35A
330
1F
100
AcDbEntity
  8
外観図
  6
CONTINUOUS
 62
     7
100
AcDbLine
 10
1155.481706349999
 20
559.0256548910099
 30
0.0
 11
1174.481706349999
 21
559.0256548910099
 31
0.0
  0
LINE
  5
35B
330
1F
100
AcDbEntity
  8
外観図
  6
CONTINUOUS
 62
     7
100
AcDbLine
 10
1154.613706349999
 20
557.5256548910099
 30
0.0
 11
1136.345706349999
 21
557.5256548910099
 31
0.0
  0
ARC
  5
35C
330
1F
100
AcDbEntity
  8
外観図
  6
CONTINUOUS
 62
     7
100
AcDbCircle
 10
1187.481706349999
 20
566.5256548910099
 30
0.0
 40
1.0
100
AcDbArc
 50
270.0
 51
0.0
  0
ARC
  5
35D
330
1F
100
AcDbEntity
  8
外観図
  6
CONTINUOUS
 62
     7
100
AcDbCircle
 10
1174.481706349999
 20
560.0256548910099
 30
0.0
 40
1.0
100
AcDbArc
 50
270.0
 51
0.0
  0
LINE
  5
35E
330
1F
100
AcDbEntity
  8
外観図
  6
CONTINUOUS
 62
     7
100
AcDbLine
 10
1155.481706349999
 20
559.0256548910099
 30
0.0
 11
1154.613706349999
 21
557.5256548910099
 31
0.0
  0
LINE
  5
35F
330
1F
100
AcDbEntity
  8
外観図
  6
CONTINUOUS
 62
     7
100
AcDbLine
 10
1110.481706349999
 20
559.0256548910099
 30
0.0
 11
1107.481706349999
 21
559.0256548910099
 31
0.0
  0
LINE
  5
360
330
1F
100
AcDbEntity
  8
外観図
  6
CONTINUOUS
 62
     7
100
AcDbLine
 10
1111.345706349999
 20
557.5256548910099
 30
0.0
 11
1128.613706349999
 21
557.5256548910099
 31
0.0
  0
ARC
  5
361
330
1F
100
AcDbEntity
  8
外観図
  6
CONTINUOUS
 62
     7
100
AcDbCircle
 10
1107.481706349999
 20
561.0256548910099
 30
0.0
 40
2.0
100
AcDbArc
 50
180.0000000000002
 51
270.0
  0
LINE
  5
362
330
1F
100
AcDbEntity
  8
外観図
  6
CONTINUOUS
 62
     7
100
AcDbLine
 10
1110.481706349999
 20
559.0256548910099
 30
0.0
 11
1111.345706349999
 21
557.5256548910099
 31
0.0
  0
ARC
  5
363
330
1F
100
AcDbEntity
  8
外観図
  6
CONTINUOUS
 62
     7
100
AcDbCircle
 10
1119.973706349999
 20
594.7776548910099
 30
0.0
 40
9.408000000000005
100
AcDbArc
 50
156.5040000000001
 51
203.4960000000001
  0
ARC
  5
364
330
1F
100
AcDbEntity
  8
外観図
  6
CONTINUOUS
 62
     7
100
AcDbCircle
 10
1135.361706349999
 20
562.68565489101
 30
0.0
 40
1.5
100
AcDbArc
 50
180.9830000000001
 51
274.517
  0
LINE
  5
365
330
1F
100
AcDbEntity
  8
外観図
  6
CONTINUOUS
 62
     7
100
AcDbLine
 10
1129.481706349999
 20
562.0256548910099
 30
0.0
 11
1133.865706349999
 21
563.71365489101
 31
0.0
  0
LINE
  5
366
330
1F
100
AcDbEntity
  8
外観図
  6
CONTINUOUS
 62
     7
100
AcDbLine
 10
1133.865706349999
 20
562.6616548910099
 30
0.0
 11
1133.865706349999
 21
578.00165489101
 31
0.0
  0
LINE
  5
367
330
1F
100
AcDbEntity
  8
外観図
  6
CONTINUOUS
 62
     7
100
AcDbLine
 10
1102.513706349999
 20
561.0376548910101
 30
0.0
 11
1098.481706349999
 21
561.0376548910101
 31
0.0
  0
LINE
  5
368
330
1F
100
AcDbEntity
  8
外観図
  6
CONTINUOUS
 62
     7
100
AcDbLine
 10
1097.481706349999
 20
578.0256548910099
 30
0.0
 11
1097.481706349999
 21
562.0376548910101
 31
0.0
  0
ARC
  5
369
330
1F
100
AcDbEntity
  8
外観図
  6
CONTINUOUS
 62
     7
100
AcDbCircle
 10
1098.481706349999
 20
562.0376548910101
 30
0.0
 40
1.0
100
AcDbArc
 50
180.0000000000002
 51
270.0
  0
LINE
  5
36A
330
1F
100
AcDbEntity
  8
外観図
  6
CONTINUOUS
 62
     7
100
AcDbLine
 10
1102.481706349999
 20
595.01365489101
 30
0.0
 11
1102.481706349999
 21
578.0256548910099
 31
0.0
  0
LINE
  5
36B
330
1F
100
AcDbEntity
  8
外観図
  6
CONTINUOUS
 62
     7
100
AcDbLine
 10
1105.481706349999
 20
578.0256548910099
 30
0.0
 11
1105.481706349999
 21
595.0256548910099
 31
0.0
  0
LINE
  5
36C
330
1F
100
AcDbEntity
  8
外観図
  6
CONTINUOUS
 62
     7
100
AcDbLine
 10
1110.481706349999
 20
597.0256548910099
 30
0.0
 11
1110.481706349999
 21
578.0256548910099
 31
0.0
  0
LINE
  5
36D
330
1F
100
AcDbEntity
  8
外観図
  6
CONTINUOUS
 62
     7
100
AcDbLine
 10
1105.401706349999
 20
589.0256548910099
 30
0.0
 11
1102.513706349999
 21
589.0256548910099
 31
0.0
  0
LINE
  5
36E
330
1F
100
AcDbEntity
  8
外観図
  6
CONTINUOUS
 62
     7
100
AcDbLine
 10
1129.481706349999
 20
578.0256548910099
 30
0.0
 11
1129.481706349999
 21
597.0256548910099
 31
0.0
  0
LINE
  5
36F
330
1F
100
AcDbEntity
  8
外観図
  6
CONTINUOUS
 62
     7
100
AcDbLine
 10
1135.481706349999
 20
578.0256548910099
 30
0.0
 11
1135.481706349999
 21
597.0256548910099
 31
0.0
  0
LINE
  5
370
330
1F
100
AcDbEntity
  8
外観図
  6
CONTINUOUS
 62
     7
100
AcDbLine
 10
1155.481706349999
 20
597.0256548910099
 30
0.0
 11
1155.481706349999
 21
578.0256548910099
 31
0.0
  0
LINE
  5
371
330
1F
100
AcDbEntity
  8
外観図
  6
CONTINUOUS
 62
     7
100
AcDbLine
 10
1175.481706349999
 20
578.0256548910099
 30
0.0
 11
1175.481706349999
 21
596.0256548910099
 31
0.0
  0
LINE
  5
372
330
1F
100
AcDbEntity
  8
外観図
  6
CONTINUOUS
 62
     7
100
AcDbLine
 10
1188.481706349999
 20
589.5256548910099
 30
0.0
 11
1188.481706349999
 21
578.0256548910099
 31
0.0
  0
LINE
  5
373
330
1F
100
AcDbEntity
  8
外観図
  6
CONTINUOUS
 62
     7
100
AcDbLine
 10
1175.481706349999
 20
590.5256548910099
 30
0.0
 11
1187.481706349999
 21
590.5256548910099
 31
0.0
  0
LINE
  5
374
330
1F
100
AcDbEntity
  8
外観図
  6
CONTINUOUS
 62
     7
100
AcDbLine
 10
1155.481706349999
 20
597.0256548910099
 30
0.0
 11
1174.481706349999
 21
597.0256548910099
 31
0.0
  0
LINE
  5
375
330
1F
100
AcDbEntity
  8
外観図
  6
CONTINUOUS
 62
     7
100
AcDbLine
 10
1154.613706349999
 20
598.5256548910099
 30
0.0
 11
1136.345706349999
 21
598.5256548910099
 31
0.0
  0
ARC
  5
376
330
1F
100
AcDbEntity
  8
外観図
  6
CONTINUOUS
 62
     7
100
AcDbCircle
 10
1187.481706349999
 20
589.5256548910099
 30
0.0
 40
1.0
100
AcDbArc
 50
0.0
 51
90.00000000000001
  0
LINE
  5
377
330
1F
100
AcDbEntity
  8
外観図
  6
CONTINUOUS
 62
     7
100
AcDbLine
 10
1178.177706349999
 20
585.0256548910099
 30
0.0
 11
1178.177706349999
 21
571.0256548910099
 31
0.0
  0
ARC
  5
378
330
1F
100
AcDbEntity
  8
外観図
  6
CONTINUOUS
 62
     7
100
AcDbCircle
 10
1174.481706349999
 20
596.0256548910099
 30
0.0
 40
1.0
100
AcDbArc
 50
0.0
 51
90.00000000000001
  0
LINE
  5
379
330
1F
100
AcDbEntity
  8
外観図
  6
CONTINUOUS
 62
     7
100
AcDbLine
 10
1155.481706349999
 20
597.0256548910099
 30
0.0
 11
1154.613706349999
 21
598.5256548910099
 31
0.0
  0
LINE
  5
37A
330
1F
100
AcDbEntity
  8
外観図
  6
CONTINUOUS
 62
     7
100
AcDbLine
 10
1110.481706349999
 20
597.0256548910099
 30
0.0
 11
1107.481706349999
 21
597.0256548910099
 31
0.0
  0
LINE
  5
37B
330
1F
100
AcDbEntity
  8
外観図
  6
CONTINUOUS
 62
     7
100
AcDbLine
 10
1111.345706349999
 20
598.5256548910099
 30
0.0
 11
1128.613706349999
 21
598.5256548910099
 31
0.0
  0
ARC
  5
37C
330
1F
100
AcDbEntity
  8
外観図
  6
CONTINUOUS
 62
     7
100
AcDbCircle
 10
1107.481706349999
 20
595.0256548910099
 30
0.0
 40
2.0
100
AcDbArc
 50
90.00000000000001
 51
180.0000000000002
  0
LINE
  5
37D
330
1F
100
AcDbEntity
  8
外観図
  6
CONTINUOUS
 62
     7
100
AcDbLine
 10
1110.481706349999
 20
597.0256548910099
 30
0.0
 11
1111.345706349999
 21
598.5256548910099
 31
0.0
  0
LINE
  5
37E
330
1F
100
AcDbEntity
  8
外観図
  6
CONTINUOUS
 62
     7
100
AcDbLine
 10
1129.481706349999
 20
597.0256548910099
 30
0.0
 11
1128.613706349999
 21
598.5256548910099
 31
0.0
  0
ARC
  5
37F
330
1F
100
AcDbEntity
  8
外観図
  6
CONTINUOUS
 62
     7
100
AcDbCircle
 10
1135.361706349999
 20
593.3656548910101
 30
0.0
 40
1.5
100
AcDbArc
 50
85.48300000000002
 51
179.0170000000001
  0
LINE
  5
380
330
1F
100
AcDbEntity
  8
外観図
  6
CONTINUOUS
 62
     7
100
AcDbLine
 10
1129.481706349999
 20
594.0256548910099
 30
0.0
 11
1133.865706349999
 21
592.3376548910098
 31
0.0
  0
LINE
  5
381
330
1F
100
AcDbEntity
  8
外観図
  6
CONTINUOUS
 62
     7
100
AcDbLine
 10
1133.865706349999
 20
593.3936548910099
 30
0.0
 11
1133.865706349999
 21
578.05365489101
 31
0.0
  0
LINE
  5
382
330
1F
100
AcDbEntity
  8
外観図
  6
CONTINUOUS
 62
     7
100
AcDbLine
 10
1102.513706349999
 20
595.01365489101
 30
0.0
 11
1098.481706349999
 21
595.01365489101
 31
0.0
  0
LINE
  5
383
330
1F
100
AcDbEntity
  8
外観図
  6
CONTINUOUS
 62
     7
100
AcDbLine
 10
1097.481706349999
 20
578.0256548910099
 30
0.0
 11
1097.481706349999
 21
594.01365489101
 31
0.0
  0
ARC
  5
384
330
1F
100
AcDbEntity
  8
外観図
  6
CONTINUOUS
 62
     7
100
AcDbCircle
 10
1098.481706349999
 20
594.01365489101
 30
0.0
 40
1.0
100
AcDbArc
 50
90.00000000000001
 51
180.0000000000002
  0
LINE
  5
385
330
1F
100
AcDbEntity
  8
外観図
  6
CONTINUOUS
 62
     7
100
AcDbLine
 10
1130.513706349999
 20
593.62965489101
 30
0.0
 11
1130.513706349999
 21
602.0256548910099
 31
0.0
  0
LINE
  5
386
330
1F
100
AcDbEntity
  8
外観図
  6
CONTINUOUS
 62
     7
100
AcDbLine
 10
1127.513706349999
 20
602.0256548910099
 30
0.0
 11
1127.513706349999
 21
598.5256548910099
 31
0.0
  0
LINE
  5
387
330
1F
100
AcDbEntity
  8
外観図
  6
CONTINUOUS
 62
     7
100
AcDbLine
 10
1123.513706349999
 20
599.2696548910101
 30
0.0
 11
1123.513706349999
 21
598.5256548910099
 31
0.0
  0
LINE
  5
388
330
1F
100
AcDbEntity
  8
外観図
  6
CONTINUOUS
 62
     7
100
AcDbLine
 10
1154.613706349999
 20
585.0256548910099
 30
0.0
 11
1136.345706349999
 21
585.0256548910099
 31
0.0
  0
LINE
  5
389
330
1F
100
AcDbEntity
  8
外観図
  6
CONTINUOUS
 62
     7
100
AcDbLine
 10
1154.613706349999
 20
591.0256548910099
 30
0.0
 11
1136.345706349999
 21
591.0256548910099
 31
0.0
  0
ARC
  5
38A
330
1F
100
AcDbEntity
  8
外観図
  6
CONTINUOUS
 62
     7
100
AcDbCircle
 10
1145.989706349999
 20
594.7776548910099
 30
0.0
 40
9.408000000000005
100
AcDbArc
 50
336.504
 51
23.49599999999996
  0
LINE
  5
38B
330
1F
100
AcDbEntity
  8
外観図
  6
CONTINUOUS
 62
     7
100
AcDbLine
 10
1154.613706349999
 20
571.0256548910099
 30
0.0
 11
1136.345706349999
 21
571.0256548910099
 31
0.0
  0
LINE
  5
38C
330
1F
100
AcDbEntity
  8
外観図
  6
CONTINUOUS
 62
     7
100
AcDbLine
 10
1154.613706349999
 20
565.0256548910099
 30
0.0
 11
1136.345706349999
 21
565.0256548910099
 31
0.0
  0
ARC
  5
38D
330
1F
100
AcDbEntity
  8
外観図
  6
CONTINUOUS
 62
     7
100
AcDbCircle
 10
1126.757706349999
 20
578.0256548910099
 30
0.0
 40
28.72400000000001
100
AcDbArc
 50
345.895
 51
14.10499999999999
  0
LINE
  5
38E
330
1F
100
AcDbEntity
  8
外観図
  6
CONTINUOUS
 62
     7
100
AcDbLine
 10
1154.613706349999
 20
571.0256548910099
 30
0.0
 11
1154.613706349999
 21
565.0256548910099
 31
0.0
  0
LINE
  5
38F
330
1F
100
AcDbEntity
  8
外観図
  6
CONTINUOUS
 62
     7
100
AcDbLine
 10
1154.613706349999
 20
591.0256548910099
 30
0.0
 11
1154.613706349999
 21
585.0256548910099
 31
0.0
  0
LINE
  5
390
330
1F
100
AcDbEntity
  8
外観図
  6
CONTINUOUS
 62
     7
100
AcDbLine
 10
1188.045706349999
 20
585.0256548910099
 30
0.0
 11
1178.177706349999
 21
585.0256548910099
 31
0.0
  0
LINE
  5
391
330
1F
100
AcDbEntity
  8
外観図
  6
CONTINUOUS
 62
     7
100
AcDbLine
 10
1188.045706349999
 20
571.0256548910099
 30
0.0
 11
1178.177706349999
 21
571.0256548910099
 31
0.0
  0
LINE
  5
392
330
1F
100
AcDbEntity
  8
外観図
  6
CONTINUOUS
 62
     7
100
AcDbLine
 10
1111.345706349999
 20
565.0256548910099
 30
0.0
 11
1128.613706349999
 21
565.0256548910099
 31
0.0
  0
ARC
  5
393
330
1F
100
AcDbEntity
  8
外観図
  6
CONTINUOUS
 62
     7
100
AcDbCircle
 10
1100.757706349999
 20
578.0256548910099
 30
0.0
 40
28.72400000000001
100
AcDbArc
 50
345.895
 51
14.10499999999999
  0
ARC
  5
394
330
1F
100
AcDbEntity
  8
外観図
  6
CONTINUOUS
 62
     7
100
AcDbCircle
 10
1139.205706349999
 20
578.0256548910099
 30
0.0
 40
28.72400000000001
100
AcDbArc
 50
165.8950000000001
 51
194.1050000000001
  0
ARC
  5
395
330
1F
100
AcDbEntity
  8
外観図
  6
CONTINUOUS
 62
     7
100
AcDbCircle
 10
1119.973706349999
 20
561.2776548910099
 30
0.0
 40
9.408000000000005
100
AcDbArc
 50
156.5040000000001
 51
203.4960000000001
  0
LINE
  5
396
330
1F
100
AcDbEntity
  8
外観図
  6
CONTINUOUS
 62
     7
100
AcDbLine
 10
1111.345706349999
 20
571.0256548910099
 30
0.0
 11
1128.613706349999
 21
571.0256548910099
 31
0.0
  0
LINE
  5
397
330
1F
100
AcDbEntity
  8
外観図
  6
CONTINUOUS
 62
     7
100
AcDbLine
 10
1111.345706349999
 20
565.0256548910099
 30
0.0
 11
1111.345706349999
 21
571.0256548910099
 31
0.0
  0
LINE
  5
398
330
1F
100
AcDbEntity
  8
外観図
  6
CONTINUOUS
 62
     7
100
AcDbLine
 10
1111.345706349999
 20
585.0256548910099
 30
0.0
 11
1128.613706349999
 21
585.0256548910099
 31
0.0
  0
LINE
  5
399
330
1F
100
AcDbEntity
  8
外観図
  6
CONTINUOUS
 62
     7
100
AcDbLine
 10
1111.345706349999
 20
585.0256548910099
 30
0.0
 11
1111.345706349999
 21
591.0256548910099
 31
0.0
  0
LINE
  5
39A
330
1F
100
AcDbEntity
  8
外観図
  6
CONTINUOUS
 62
     7
100
AcDbLine
 10
1111.345706349999
 20
591.0256548910099
 30
0.0
 11
1128.613706349999
 21
591.0256548910099
 31
0.0
  0
ARC
  5
39B
330
1F
100
AcDbEntity
  8
外観図
  6
CONTINUOUS
 62
     7
100
AcDbCircle
 10
1119.989706349999
 20
594.7776548910099
 30
0.0
 40
9.408000000000005
100
AcDbArc
 50
336.504
 51
23.49599999999996
  0
ARC
  5
39C
330
1F
100
AcDbEntity
  8
外観図
  6
CONTINUOUS
 62
     7
100
AcDbCircle
 10
1119.989706349999
 20
561.2776548910099
 30
0.0
 40
9.408000000000005
100
AcDbArc
 50
336.504
 51
23.49599999999996
  0
LINE
  5
39D
330
1F
100
AcDbEntity
  8
外観図
  6
CONTINUOUS
 62
     7
100
AcDbLine
 10
1128.613706349999
 20
557.5256548910099
 30
0.0
 11
1129.481706349999
 21
560.1256548910098
 31
0.0
  0
LINE
  5
39E
330
1F
100
AcDbEntity
  8
外観図
  6
CONTINUOUS
 62
     7
100
AcDbLine
 10
1128.613706349999
 20
591.0256548910099
 30
0.0
 11
1128.613706349999
 21
585.0256548910099
 31
0.0
  0
LINE
  5
39F
330
1F
100
AcDbEntity
  8
外観図
  6
CONTINUOUS
 62
     7
100
AcDbLine
 10
1128.613706349999
 20
571.0256548910099
 30
0.0
 11
1128.613706349999
 21
565.0256548910099
 31
0.0
  0
ARC
  5
3A0
330
1F
100
AcDbEntity
  8
外観図
  6
CONTINUOUS
 62
     7
100
AcDbCircle
 10
1145.989706349999
 20
561.2776548910099
 30
0.0
 40
9.408000000000005
100
AcDbArc
 50
336.504
 51
23.49599999999996
  0
ARC
  5
3A1
330
1F
100
AcDbEntity
  8
外観図
  6
CONTINUOUS
 62
     7
100
AcDbCircle
 10
1144.973706349999
 20
594.7776548910099
 30
0.0
 40
9.408000000000005
100
AcDbArc
 50
156.5040000000001
 51
203.4960000000001
  0
LINE
  5
3A2
330
1F
100
AcDbEntity
  8
外観図
  6
CONTINUOUS
 62
     7
100
AcDbLine
 10
1135.481706349999
 20
597.0256548910099
 30
0.0
 11
1136.345706349999
 21
598.5256548910099
 31
0.0
  0
LINE
  5
3A3
330
1F
100
AcDbEntity
  8
外観図
  6
CONTINUOUS
 62
     7
100
AcDbLine
 10
1136.345706349999
 20
585.0256548910099
 30
0.0
 11
1136.345706349999
 21
591.0256548910099
 31
0.0
  0
ARC
  5
3A4
330
1F
100
AcDbEntity
  8
外観図
  6
CONTINUOUS
 62
     7
100
AcDbCircle
 10
1164.205706349999
 20
578.0256548910099
 30
0.0
 40
28.72400000000001
100
AcDbArc
 50
165.8950000000001
 51
194.1050000000001
  0
LINE
  5
3A5
330
1F
100
AcDbEntity
  8
外観図
  6
CONTINUOUS
 62
     7
100
AcDbLine
 10
1136.345706349999
 20
565.0256548910099
 30
0.0
 11
1136.345706349999
 21
571.0256548910099
 31
0.0
  0
ARC
  5
3A6
330
1F
100
AcDbEntity
  8
外観図
  6
CONTINUOUS
 62
     7
100
AcDbCircle
 10
1144.973706349999
 20
561.2776548910099
 30
0.0
 40
9.408000000000005
100
AcDbArc
 50
156.5040000000001
 51
203.4960000000001
  0
LINE
  5
3A7
330
1F
100
AcDbEntity
  8
外観図
  6
CONTINUOUS
 62
     7
100
AcDbLine
 10
1135.481706349999
 20
559.0256548910099
 30
0.0
 11
1136.345706349999
 21
557.5256548910099
 31
0.0
  0
LINE
  5
3A8
330
1F
100
AcDbEntity
  8
外観図
  6
CONTINUOUS
 62
     7
100
AcDbLine
 10
1097.481706349999
 20
562.0256548910099
 30
0.0
 11
1095.945706349999
 21
562.45765489101
 31
0.0
  0
ARC
  5
3A9
330
1F
100
AcDbEntity
  8
外観図
  6
CONTINUOUS
 62
     7
100
AcDbCircle
 10
1096.349706349999
 20
563.9016548910099
 30
0.0
 40
1.5
100
AcDbArc
 50
180.0000000000002
 51
254.348
  0
LINE
  5
3AA
330
1F
100
AcDbEntity
  8
外観図
  6
CONTINUOUS
 62
     7
100
AcDbLine
 10
1094.849706349999
 20
591.87765489101
 30
0.0
 11
1094.849706349999
 21
563.9016548910099
 31
0.0
  0
ARC
  5
3AB
330
1F
100
AcDbEntity
  8
外観図
  6
CONTINUOUS
 62
     7
100
AcDbCircle
 10
1096.349706349999
 20
591.87765489101
 30
0.0
 40
1.5
100
AcDbArc
 50
114.0980000000001
 51
180.0000000000002
  0
LINE
  5
3AC
330
1F
100
AcDbEntity
  8
外観図
  6
CONTINUOUS
 62
     7
100
AcDbLine
 10
1097.481706349999
 20
594.0256548910099
 30
0.0
 11
1095.737706349998
 21
593.24565489101
 31
0.0
  0
ARC
  5
3AD
330
1F
100
AcDbEntity
  8
外観図
  6
CONTINUOUS
 62
     7
100
AcDbCircle
 10
1035.487497590478
 20
578.0000000000039
 30
0.0
 40
80.0
100
AcDbArc
 50
14.86667563452744
 51
345.1713416679137
  0
ARC
  5
3AE
330
1F
100
AcDbEntity
  8
外観図
  6
CONTINUOUS
 62
     7
100
AcDbCircle
 10
1035.487497590478
 20
578.0000000000039
 30
0.0
 40
67.0
100
AcDbArc
 50
14.71049681481917
 51
34.79845613129633
  0
ARC
  5
3AF
330
1F
100
AcDbEntity
  8
外観図
  6
CONTINUOUS
 62
     7
100
AcDbCircle
 10
1035.487497590478
 20
578.0000000000039
 30
0.0
 40
67.0
100
AcDbArc
 50
334.3995003814172
 51
345.3348636069995
  0
LINE
  5
3B0
330
1F
100
AcDbEntity
  8
外観図
  6
CONTINUOUS
 62
     7
100
AcDbLine
 10
1130.487497590477
 20
413.0000000000034
 30
0.0
 11
1130.487497590477
 21
451.670000000004
 31
0.0
  0
LINE
  5
3B1
330
1F
100
AcDbEntity
  8
外観図
  6
CONTINUOUS
 62
     7
100
AcDbLine
 10
1127.487497590477
 20
413.0000000000034
 30
0.0
 11
1127.487497590477
 21
452.1355000000035
 31
0.0
  0
LINE
  5
3B2
330
1F
100
AcDbEntity
  8
外観図
  6
CONTINUOUS
 62
     7
100
AcDbLine
 10
1130.487497590477
 20
507.2385000000038
 30
0.0
 11
1130.487497590477
 21
492.2385000000038
 31
0.0
  0
LINE
  5
3B3
330
1F
100
AcDbEntity
  8
外観図
  6
CONTINUOUS
 62
     7
100
AcDbLine
 10
1127.487497590477
 20
557.52565489101
 30
0.0
 11
1127.487497590477
 21
452.1355000000035
 31
0.0
  0
LINE
  5
3B4
330
1F
100
AcDbEntity
  8
外観図
  6
CONTINUOUS
 62
     7
100
AcDbLine
 10
1130.487497590477
 20
451.670000000004
 30
0.0
 11
1130.487497590477
 21
562.4129212263035
 31
0.0
  0
ENDSEC
  0
SECTION
  2
OBJECTS
  0
DICTIONARY
  5
C
330
0
100
AcDbDictionary
  3
ACAD_GROUP
350
D
  3
ACAD_LAYOUT
350
1A
  3
ACAD_MATERIAL
350
43
  3
ACAD_MLEADERSTYLE
350
3D7
  3
ACAD_MLINESTYLE
350
17
  3
ACAD_PLOTSETTINGS
350
19
  3
ACAD_SCALELIST
350
47
  3
ACAD_VISUALSTYLE
350
2A
  3
ACDBHEADERROUNDTRIPXREC
350
3B5
  3
ACDBVARIABLEDICTIONARY
350
3D5
  0
DICTIONARY
  5
D
102
{ACAD_REACTORS
330
C
102
}
330
C
100
AcDbDictionary
  0
DICTIONARY
  5
1A
102
{ACAD_REACTORS
330
C
102
}
330
C
100
AcDbDictionary
  0
DICTIONARY
  5
43
102
{ACAD_REACTORS
330
C
102
}
330
C
100
AcDbDictionary
  3
BYBLOCK
350
45
  3
BYLAYER
350
44
  3
GLOBAL
350
46
  0
DICTIONARY
  5
3D7
102
{ACAD_REACTORS
330
C
102
}
330
C
100
AcDbDictionary
  0
DICTIONARY
  5
17
102
{ACAD_REACTORS
330
C
102
}
330
C
100
AcDbDictionary
  3
STANDARD
350
18
  0
DICTIONARY
  5
19
102
{ACAD_REACTORS
330
C
102
}
330
C
100
AcDbDictionary
  0
DICTIONARY
  5
47
102
{ACAD_REACTORS
330
C
102
}
330
C
100
AcDbDictionary
  3
A0
350
48
  3
A1
350
49
  3
A2
350
4A
  3
A3
350
4B
  3
A4
350
4C
  3
A5
350
4D
  3
A6
350
4E
  3
A7
350
4F
  3
A8
350
50
  3
A9
350
51
  3
B0
350
52
  3
B1
350
53
  3
B2
350
54
  3
B3
350
55
  3
B4
350
56
  3
B5
350
57
  3
B6
350
58
  3
B7
350
59
  3
B8
350
5A
  3
B9
350
5B
  3
C0
350
5C
  3
C1
350
5D
  3
C2
350
5E
  3
C3
350
5F
  3
C4
350
60
  3
C5
350
61
  3
C6
350
62
  3
C7
350
63
  3
C8
350
64
  3
C9
350
65
  3
D0
350
66
  3
D1
350
67
  3
D2
350
68
  0
DICTIONARY
  5
2A
102
{ACAD_REACTORS
330
C
102
}
330
C
100
AcDbDictionary
  3
2DWIREFRAME
350
2F
  3
BASIC
350
32
  3
BRIGHTEN
350
36
  3
COLORCHANGE
350
3A
  3
CONCEPTUAL
350
34
  3
DIM
350
35
  3
EDGECOLOROFF
350
3D
  3
FACEPATTERN
350
39
  3
FLAT
350
2B
  3
FLATWITHEDGES
350
2C
  3
GOURAUD
350
2D
  3
GOURAUDWITHEDGES
350
2E
  3
HIDDEN
350
31
  3
JITTEROFF
350
3B
  3
LINEPATTERN
350
38
  3
OVERHANGOFF
350
3C
  3
REALISTIC
350
33
  3
SHADED
350
42
  3
SHADED_WITH_EDGES
350
41
  3
SHADES_OF_GRAY
350
3E
  3
SKETCHY
350
3F
  3
THICKEN
350
37
  3
WIREFRAME
350
30
  3
X-RAY
350
40
  0
DICTIONARY
  5
3B5
102
{ACAD_REACTORS
330
C
102
}
330
C
100
AcDbDictionary
  3
CEPSNTYPE
350
3BE
  3
DIMSTYLEDATA
350
3D4
  3
FINGERPRINTGUID
350
3BF
  3
HYPERLINKBASE
350
3B8
  3
INSUNITS
350
3BD
  3
LAYOUTDICT
350
3BA
  3
LWETCUNION
350
3BC
  3
PLOTSETDICT
350
3BB
  3
PSVPSCALE
350
3C1
  3
PUCSBASE
350
3C4
  3
PUCSORGBACK
350
3CA
  3
PUCSORGBOTTOM
350
3C6
  3
PUCSORGFRONT
350
3C9
  3
PUCSORGLEFT
350
3C7
  3
PUCSORGRIGHT
350
3C8
  3
PUCSORGTOP
350
3C5
  3
PUCSORTHOREF
350
3C2
  3
PUCSORTHOVIEW
350
3C3
  3
STYLESHEET
350
3B9
  3
TSTACKALIGN
350
3B6
  3
TSTACKSIZE
350
3B7
  3
UCSBASE
350
3CD
  3
UCSORGBACK
350
3D3
  3
UCSORGBOTTOM
350
3CF
  3
UCSORGFRONT
350
3D2
  3
UCSORGLEFT
350
3D0
  3
UCSORGRIGHT
350
3D1
  3
UCSORGTOP
350
3CE
  3
UCSORTHOREF
350
3CB
  3
UCSORTHOVIEW
350
3CC
  3
VERSIONGUID
350
3C0
  0
DICTIONARY
  5
3D5
102
{ACAD_REACTORS
330
C
102
}
330
C
100
AcDbDictionary
  3
CANNOSCALE
350
3DE
  3
DIMASSOC
350
3DC
  3
HIDETEXT
350
3DD
  3
MSLTSCALE
350
3DF
  3
PSOLHEIGHT
350
3D9
  3
PSOLWIDTH
350
3D8
  0
MATERIAL
  5
45
102
{ACAD_REACTORS
330
43
102
}
102
{ACAD_XDICTIONARY
360
3E2
102
}
330
43
100
AcDbMaterial
  1
BYBLOCK
  0
MATERIAL
  5
44
102
{ACAD_REACTORS
330
43
102
}
102
{ACAD_XDICTIONARY
360
3E0
102
}
330
43
100
AcDbMaterial
  1
BYLAYER
  0
MATERIAL
  5
46
102
{ACAD_REACTORS
330
43
102
}
102
{ACAD_XDICTIONARY
360
3E4
102
}
330
43
100
AcDbMaterial
  1
GLOBAL
  0
MLINESTYLE
  5
18
102
{ACAD_REACTORS
330
17
102
}
330
17
100
AcDbMlineStyle
  2
Standard
 70
     0
  3

 62
   256
 51
90.0
 52
90.0
 71
     2
 49
0.5
 62
   256
  6
BYLAYER
 49
-0.5
 62
   256
  6
BYLAYER
  0
ACAD_PROXY_OBJECT
  5
48
102
{ACAD_REACTORS
330
47
102
}
330
47
100
AcDbProxyObject
 90
      499
 91
      503
 93
       41
310
903313A31580
  0
ACAD_PROXY_OBJECT
  5
49
102
{ACAD_REACTORS
330
47
102
}
330
47
100
AcDbProxyObject
 90
      499
 91
      503
 93
      105
310
903313A324000000000000004000
  0
ACAD_PROXY_OBJECT
  5
4A
102
{ACAD_REACTORS
330
47
102
}
330
47
100
AcDbProxyObject
 90
      499
 91
      503
 93
      105
310
903313A344000000000000104000
  0
ACAD_PROXY_OBJECT
  5
4B
102
{ACAD_REACTORS
330
47
102
}
330
47
100
AcDbProxyObject
 90
      499
 91
      503
 93
      105
310
903313A354000000000000144000
  0
ACAD_PROXY_OBJECT
  5
4C
102
{ACAD_REACTORS
330
47
102
}
330
47
100
AcDbProxyObject
 90
      499
 91
      503
 93
      105
310
903313A384000000000000204000
  0
ACAD_PROXY_OBJECT
  5
4D
102
{ACAD_REACTORS
330
47
102
}
330
47
100
AcDbProxyObject
 90
      499
 91
      503
 93
      113
310
904313A31304000000000000244000
  0
ACAD_PROXY_OBJECT
  5
4E
102
{ACAD_REACTORS
330
47
102
}
330
47
100
AcDbProxyObject
 90
      499
 91
      503
 93
      113
310
904313A31364000000000000304000
  0
ACAD_PROXY_OBJECT
  5
4F
102
{ACAD_REACTORS
330
47
102
}
330
47
100
AcDbProxyObject
 90
      499
 91
      503
 93
      113
310
904313A32304000000000000344000
  0
ACAD_PROXY_OBJECT
  5
50
102
{ACAD_REACTORS
330
47
102
}
330
47
100
AcDbProxyObject
 90
      499
 91
      503
 93
      113
310
904313A333040000000000003E4000
  0
ACAD_PROXY_OBJECT
  5
51
102
{ACAD_REACTORS
330
47
102
}
330
47
100
AcDbProxyObject
 90
      499
 91
      503
 93
      113
310
904313A34304000000000000444000
  0
ACAD_PROXY_OBJECT
  5
52
102
{ACAD_REACTORS
330
47
102
}
330
47
100
AcDbProxyObject
 90
      499
 91
      503
 93
      113
310
904313A35304000000000000494000
  0
ACAD_PROXY_OBJECT
  5
53
102
{ACAD_REACTORS
330
47
102
}
330
47
100
AcDbProxyObject
 90
      499
 91
      503
 93
      121
310
905313A3130304000000000000594000
  0
ACAD_PROXY_OBJECT
  5
54
102
{ACAD_REACTORS
330
47
102
}
330
47
100
AcDbProxyObject
 90
      499
 91
      503
 93
      105
310
903323A310000000000000010100
  0
ACAD_PROXY_OBJECT
  5
55
102
{ACAD_REACTORS
330
47
102
}
330
47
100
AcDbProxyObject
 90
      499
 91
      503
 93
      105
310
903343A310000000000000410100
  0
ACAD_PROXY_OBJECT
  5
56
102
{ACAD_REACTORS
330
47
102
}
330
47
100
AcDbProxyObject
 90
      499
 91
      503
 93
      105
310
903383A310000000000000810100
  0
ACAD_PROXY_OBJECT
  5
57
102
{ACAD_REACTORS
330
47
102
}
330
47
100
AcDbProxyObject
 90
      499
 91
      503
 93
      113
310
90431303A310000000000000910100
  0
ACAD_PROXY_OBJECT
  5
58
102
{ACAD_REACTORS
330
47
102
}
330
47
100
AcDbProxyObject
 90
      499
 91
      503
 93
      121
310
9053130303A310000000000001650100
  0
ACAD_PROXY_OBJECT
  5
59
102
{ACAD_REACTORS
330
47
102
}
330
47
100
AcDbProxyObject
 90
      499
 91
      503
 93
      257
310
90E312F31323822203D2031272D3022000000000000200FC000000000000284000
  0
ACAD_PROXY_OBJECT
  5
5A
102
{ACAD_REACTORS
330
47
102
}
330
47
100
AcDbProxyObject
 90
      499
 91
      503
 93
      249
310
90D312F363422203D2031272D3022000000000000240FC000000000000284000
  0
ACAD_PROXY_OBJECT
  5
5B
102
{ACAD_REACTORS
330
47
102
}
330
47
100
AcDbProxyObject
 90
      499
 91
      503
 93
      249
310
90D312F333222203D2031272D3022000000000000280FC000000000000284000
  0
ACAD_PROXY_OBJECT
  5
5C
102
{ACAD_REACTORS
330
47
102
}
330
47
100
AcDbProxyObject
 90
      499
 91
      503
 93
      249
310
90D312F313622203D2031272D30220000000000002C0FC000000000000284000
  0
ACAD_PROXY_OBJECT
  5
5D
102
{ACAD_REACTORS
330
47
102
}
330
47
100
AcDbProxyObject
 90
      499
 91
      503
 93
      249
310
90D332F333222203D2031272D30220000000000002E0FC000000000000284000
  0
ACAD_PROXY_OBJECT
  5
5E
102
{ACAD_REACTORS
330
47
102
}
330
47
100
AcDbProxyObject
 90
      499
 91
      503
 93
      241
310
90C312F3822203D2031272D3022000000000000300FC000000000000284000
  0
ACAD_PROXY_OBJECT
  5
5F
102
{ACAD_REACTORS
330
47
102
}
330
47
100
AcDbProxyObject
 90
      499
 91
      503
 93
      249
310
90D332F313622203D2031272D3022000000000000320FC000000000000284000
  0
ACAD_PROXY_OBJECT
  5
60
102
{ACAD_REACTORS
330
47
102
}
330
47
100
AcDbProxyObject
 90
      499
 91
      503
 93
      241
310
90C312F3422203D2031272D3022000000000000340FC000000000000284000
  0
ACAD_PROXY_OBJECT
  5
61
102
{ACAD_REACTORS
330
47
102
}
330
47
100
AcDbProxyObject
 90
      499
 91
      503
 93
      241
310
90C332F3822203D2031272D3022000000000000360FC000000000000284000
  0
ACAD_PROXY_OBJECT
  5
62
102
{ACAD_REACTORS
330
47
102
}
330
47
100
AcDbProxyObject
 90
      499
 91
      503
 93
      241
310
90C312F3222203D2031272D3022000000000000380FC000000000000284000
  0
ACAD_PROXY_OBJECT
  5
63
102
{ACAD_REACTORS
330
47
102
}
330
47
100
AcDbProxyObject
 90
      499
 91
      503
 93
      241
310
90C332F3422203D2031272D30220000000000003A0FC000000000000284000
  0
ACAD_PROXY_OBJECT
  5
64
102
{ACAD_REACTORS
330
47
102
}
330
47
100
AcDbProxyObject
 90
      499
 91
      503
 93
      161
310
90A3122203D2031272D30224000000000000284000
  0
ACAD_PROXY_OBJECT
  5
65
102
{ACAD_REACTORS
330
47
102
}
330
47
100
AcDbProxyObject
 90
      499
 91
      503
 93
      257
310
90E312D312F3222203D2031272D30220000000000003E0FC000000000000284000
  0
ACAD_PROXY_OBJECT
  5
66
102
{ACAD_REACTORS
330
47
102
}
330
47
100
AcDbProxyObject
 90
      499
 91
      503
 93
      225
310
90A3322203D2031272D302200000000000002100000000000000284000
  0
ACAD_PROXY_OBJECT
  5
67
102
{ACAD_REACTORS
330
47
102
}
330
47
100
AcDbProxyObject
 90
      499
 91
      503
 93
      225
310
90A3622203D2031272D302200000000000006100000000000000284000
  0
ACAD_PROXY_OBJECT
  5
68
102
{ACAD_REACTORS
330
47
102
}
330
47
100
AcDbProxyObject
 90
      499
 91
      503
 93
      249
310
90D31272D3022203D2031272D30220000000000000A100000000000000284000
  0
ACAD_PROXY_OBJECT
  5
2F
102
{ACAD_REACTORS
330
2A
102
}
330
2A
100
AcDbProxyObject
 90
      499
 91
      501
 93
      436
310
42CC9915DA5C99599C985B595049028333333333333E33F0000000000000F90107901411070040501600405405064090741402480A0340
1001
ACAD
1000
AcDbSavedByObjectVersion
1070
     0
  0
ACAD_PROXY_OBJECT
  5
32
102
{ACAD_REACTORS
330
2A
102
}
330
2A
100
AcDbProxyObject
 90
      499
 91
      501
 93
      388
310
4150985CDA58D07406404333333333333E33F0000000000000F90107A41107004050150841D405064090741402480A0350
1001
ACAD
1000
AcDbSavedByObjectVersion
1070
     0
  0
ACAD_PROXY_OBJECT
  5
36
102
{ACAD_REACTORS
330
2A
102
}
330
2A
100
AcDbProxyObject
 90
      499
 91
      501
 93
      428
310
42109C9A59DA1D195B90C409028333333333333E33F0000000000000F9010790141107004050150841D405064090741402480A029950
1001
ACAD
1000
AcDbSavedByObjectVersion
1070
     0
  0
ACAD_PROXY_OBJECT
  5
3A
102
{ACAD_REACTORS
330
2A
102
}
330
2A
100
AcDbProxyObject
 90
      499
 91
      501
 93
      452
310
42D0DBDB1BDC90DA185B99D95104090240C333333333333E33F0000000000000F90108901411070040501508421405064090741402480A0350
1001
ACAD
1000
AcDbSavedByObjectVersion
1070
     0
  0
ACAD_PROXY_OBJECT
  5
34
102
{ACAD_REACTORS
330
2A
102
}
330
2A
100
AcDbProxyObject
 90
      499
 91
      501
 93
      500
310
4290DBDB98D95C1D1D585B10940D028333333333333E33F0000000000000F90107902409070040501000000000018199010841D405064090740C02480A0340
1001
ACAD
1000
AcDbSavedByObjectVersion
1070
     0
  0
ACAD_PROXY_OBJECT
  5
35
102
{ACAD_REACTORS
330
2A
102
}
330
2A
100
AcDbProxyObject
 90
      499
 91
      501
 93
      412
310
40D11A5B50B409028333333333333E33F0000000000000F9010790141107004050150841D405064090741402480A02677FFFFFD0
1001
ACAD
1000
AcDbSavedByObjectVersion
1070
     0
  0
ACAD_PROXY_OBJECT
  5
3D
102
{ACAD_REACTORS
330
2A
102
}
330
2A
100
AcDbProxyObject
 90
      499
 91
      501
 93
      452
310
43115919D950DBDB1BDC93D999916409028333333333333E33F0000000000000F9010790141107004050150841D405064090741402480A0350
1001
ACAD
1000
AcDbSavedByObjectVersion
1070
     0
  0
ACAD_PROXY_OBJECT
  5
39
102
{ACAD_REACTORS
330
2A
102
}
330
2A
100
AcDbProxyObject
 90
      499
 91
      501
 93
      444
310
42D19858D95C185D1D195C9B90F409028333333333333E33F0000000000000F9010790141107004050150841D405064090741402480A0350
1001
ACAD
1000
AcDbSavedByObjectVersion
1070
     0
  0
ACAD_PROXY_OBJECT
  5
2B
102
{ACAD_REACTORS
330
2A
102
}
330
2A
100
AcDbProxyObject
 90
      499
 91
      501
 93
      380
310
41119B185D240901404333333333333E33F0000000000000F9010740A907004050150841D405064090741402480A1B50
1001
ACAD
1000
AcDbSavedByObjectVersion
1070
     0
  0
ACAD_PROXY_OBJECT
  5
2C
102
{ACAD_REACTORS
330
2A
102
}
330
2A
100
AcDbProxyObject
 90
      499
 91
      501
 93
      468
310
43519B185D15DA5D1A115919D95CD0140901404333333333333E33F0000000000000F90107409019070040501600405405064090741402480A1B50
1001
ACAD
1000
AcDbSavedByObjectVersion
1070
     0
  0
ACAD_PROXY_OBJECT
  5
2D
102
{ACAD_REACTORS
330
2A
102
}
330
2A
100
AcDbProxyObject
 90
      499
 91
      501
 93
      404
310
41D1DBDD5C985D5910240902404333333333333E33F0000000000000F9010740A9070040501641D405064090741402480A1B50
1001
ACAD
1000
AcDbSavedByObjectVersion
1070
     0
  0
ACAD_PROXY_OBJECT
  5
2E
102
{ACAD_REACTORS
330
2A
102
}
330
2A
100
AcDbProxyObject
 90
      499
 91
      501
 93
      492
310
4411DBDD5C985D5915DA5D1A115919D95CD0340902404333333333333E33F0000000000000F90107409019070040501600405405064090741402480A1B50
1001
ACAD
1000
AcDbSavedByObjectVersion
1070
     0
  0
ACAD_PROXY_OBJECT
  5
31
102
{ACAD_REACTORS
330
2A
102
}
330
2A
100
AcDbProxyObject
 90
      499
 91
      501
 93
      476
310
41921A5919195B90640502408333333333333E33F0000000000000F901079024090700405020000000000001110200405405064090740C02480A0340
1001
ACAD
1000
AcDbSavedByObjectVersion
1070
     0
  0
ACAD_PROXY_OBJECT
  5
3B
102
{ACAD_REACTORS
330
2A
102
}
330
2A
100
AcDbProxyObject
 90
      499
 91
      501
 93
      428
310
42529A5D1D195C93D999914409028333333333333E33F0000000000000F9010790141107004050150A41D405064090741402480A0350
1001
ACAD
1000
AcDbSavedByObjectVersion
1070
     0
  0
ACAD_PROXY_OBJECT
  5
38
102
{ACAD_REACTORS
330
2A
102
}
330
2A
100
AcDbProxyObject
 90
      499
 91
      501
 93
      444
310
42D31A5B995C185D1D195C9B90E409028333333333333E33F0000000000000F9010790141107004050750841D405064090741402483A0350
1001
ACAD
1000
AcDbSavedByObjectVersion
1070
     0
  0
ACAD_PROXY_OBJECT
  5
3C
102
{ACAD_REACTORS
330
2A
102
}
330
2A
100
AcDbProxyObject
 90
      499
 91
      501
 93
      444
310
42D3DD995C9A185B99D3D999915409028333333333333E33F0000000000000F9010790141107004050150941D405064090741402480A0350
1001
ACAD
1000
AcDbSavedByObjectVersion
1070
     0
  0
ACAD_PROXY_OBJECT
  5
33
102
{ACAD_REACTORS
330
2A
102
}
330
2A
100
AcDbProxyObject
 90
      499
 91
      501
 93
      428
310
425499585B1A5CDD1A58D08409038333333333333E33F0000000000000F9010740A907004050150800405405064090740C02480A1B40
1001
ACAD
1000
AcDbSavedByObjectVersion
1070
     0
  0
ACAD_PROXY_OBJECT
  5
42
102
{ACAD_REACTORS
330
2A
102
}
330
2A
100
AcDbProxyObject
 90
      499
 91
      501
 93
      420
310
4194DA1859195911B40902404333333333333E33F0000000000000F9010740A41107004050150800405405064090840C02480A0B40
1001
ACAD
1000
AcDbSavedByObjectVersion
1070
     0
  0
ACAD_PROXY_OBJECT
  5
41
102
{ACAD_REACTORS
330
2A
102
}
330
2A
100
AcDbProxyObject
 90
      499
 91
      501
 93
      516
310
4454DA18591959081DDA5D1A08195919D95CD1A40902404333333333333E33F0000000000000F901074090142907004050250800405405064090740C02480A0B40
1001
ACAD
1000
AcDbSavedByObjectVersion
1070
     0
  0
ACAD_PROXY_OBJECT
  5
3E
102
{ACAD_REACTORS
330
2A
102
}
330
2A
100
AcDbProxyObject
 90
      499
 91
      501
 93
      532
310
4394DA1859195CC81BD98811DC985E5174090240C333333333333E33F0000000000000F901079024090741D01000000000000111010841D405064090740C02480A0340
1001
ACAD
1000
AcDbSavedByObjectVersion
1070
     0
  0
ACAD_PROXY_OBJECT
  5
3F
102
{ACAD_REACTORS
330
2A
102
}
330
2A
100
AcDbProxyObject
 90
      499
 91
      501
 93
      476
310
41D4DAD95D18DA1E51840502408333333333333E33F0000000000000F901079024090741D01000000000000111010B41D405064090741802480A0340
1001
ACAD
1000
AcDbSavedByObjectVersion
1070
     0
  0
ACAD_PROXY_OBJECT
  5
37
102
{ACAD_REACTORS
330
2A
102
}
330
2A
100
AcDbProxyObject
 90
      499
 91
      501
 93
      412
310
41D51A1A58DAD95B90D409028333333333333E33F0000000000000F9010790141107004050150C41D405064090741402480A0350
1001
ACAD
1000
AcDbSavedByObjectVersion
1070
     0
  0
ACAD_PROXY_OBJECT
  5
30
102
{ACAD_REACTORS
330
2A
102
}
330
2A
100
AcDbProxyObject
 90
      499
 91
      501
 93
      420
310
4255DA5C99599C985B595059028333333333333E33F0000000000000F90107901411070040501600405405064090740C02480A0340
1001
ACAD
1000
AcDbSavedByObjectVersion
1070
     0
  0
ACAD_PROXY_OBJECT
  5
40
102
{ACAD_REACTORS
330
2A
102
}
330
2A
100
AcDbProxyObject
 90
      499
 91
      501
 93
      404
310
41560B54985E51940902404000000000000E03F0000000000000F9010740501907004050150841D405064090740C02480A1B40
1001
ACAD
1000
AcDbSavedByObjectVersion
1070
     0
  0
XRECORD
  5
3BE
102
{ACAD_REACTORS
330
3B5
102
}
330
3B5
100
AcDbXrecord
 90
        0
  0
XRECORD
  5
3D4
102
{ACAD_REACTORS
330
3B5
102
}
330
3B5
100
AcDbXrecord
1000
DSTYLE
1002
{
1070
   340
340
11
1002
}
  0
XRECORD
  5
3BF
102
{ACAD_REACTORS
330
3B5
102
}
330
3B5
100
AcDbXrecord
  1
{4CB2C08D-2A29-4F0A-B620-D1814561E1DA}
  0
XRECORD
  5
3B8
102
{ACAD_REACTORS
330
3B5
102
}
330
3B5
100
AcDbXrecord
  1

  0
XRECORD
  5
3BD
102
{ACAD_REACTORS
330
3B5
102
}
330
3B5
100
AcDbXrecord
 90
        4
  0
XRECORD
  5
3BA
102
{ACAD_REACTORS
330
3B5
102
}
330
3B5
100
AcDbXrecord
340
1A
  0
XRECORD
  5
3BC
102
{ACAD_REACTORS
330
3B5
102
}
330
3B5
100
AcDbXrecord
 90
    10781
  0
XRECORD
  5
3BB
102
{ACAD_REACTORS
330
3B5
102
}
330
3B5
100
AcDbXrecord
340
19
  0
XRECORD
  5
3C1
102
{ACAD_REACTORS
330
3B5
102
}
330
3B5
100
AcDbXrecord
 40
0.0
  0
XRECORD
  5
3C4
102
{ACAD_REACTORS
330
3B5
102
}
330
3B5
100
AcDbXrecord
340
0
  0
XRECORD
  5
3CA
102
{ACAD_REACTORS
330
3B5
102
}
330
3B5
100
AcDbXrecord
 10
0.0
 20
0.0
 30
0.0
  0
XRECORD
  5
3C6
102
{ACAD_REACTORS
330
3B5
102
}
330
3B5
100
AcDbXrecord
 10
0.0
 20
0.0
 30
0.0
  0
XRECORD
  5
3C9
102
{ACAD_REACTORS
330
3B5
102
}
330
3B5
100
AcDbXrecord
 10
0.0
 20
0.0
 30
0.0
  0
XRECORD
  5
3C7
102
{ACAD_REACTORS
330
3B5
102
}
330
3B5
100
AcDbXrecord
 10
0.0
 20
0.0
 30
0.0
  0
XRECORD
  5
3C8
102
{ACAD_REACTORS
330
3B5
102
}
330
3B5
100
AcDbXrecord
 10
0.0
 20
0.0
 30
0.0
  0
XRECORD
  5
3C5
102
{ACAD_REACTORS
330
3B5
102
}
330
3B5
100
AcDbXrecord
 10
0.0
 20
0.0
 30
0.0
  0
XRECORD
  5
3C2
102
{ACAD_REACTORS
330
3B5
102
}
330
3B5
100
AcDbXrecord
340
0
  0
XRECORD
  5
3C3
102
{ACAD_REACTORS
330
3B5
102
}
330
3B5
100
AcDbXrecord
 70
     0
  0
XRECORD
  5
3B9
102
{ACAD_REACTORS
330
3B5
102
}
330
3B5
100
AcDbXrecord
  1

  0
XRECORD
  5
3B6
102
{ACAD_REACTORS
330
3B5
102
}
330
3B5
100
AcDbXrecord
 90
        1
  0
XRECORD
  5
3B7
102
{ACAD_REACTORS
330
3B5
102
}
330
3B5
100
AcDbXrecord
 90
       70
  0
XRECORD
  5
3CD
102
{ACAD_REACTORS
330
3B5
102
}
330
3B5
100
AcDbXrecord
340
0
  0
XRECORD
  5
3D3
102
{ACAD_REACTORS
330
3B5
102
}
330
3B5
100
AcDbXrecord
 10
0.0
 20
0.0
 30
0.0
  0
XRECORD
  5
3CF
102
{ACAD_REACTORS
330
3B5
102
}
330
3B5
100
AcDbXrecord
 10
0.0
 20
0.0
 30
0.0
  0
XRECORD
  5
3D2
102
{ACAD_REACTORS
330
3B5
102
}
330
3B5
100
AcDbXrecord
 10
0.0
 20
0.0
 30
0.0
  0
XRECORD
  5
3D0
102
{ACAD_REACTORS
330
3B5
102
}
330
3B5
100
AcDbXrecord
 10
0.0
 20
0.0
 30
0.0
  0
XRECORD
  5
3D1
102
{ACAD_REACTORS
330
3B5
102
}
330
3B5
100
AcDbXrecord
 10
0.0
 20
0.0
 30
0.0
  0
XRECORD
  5
3CE
102
{ACAD_REACTORS
330
3B5
102
}
330
3B5
100
AcDbXrecord
 10
0.0
 20
0.0
 30
0.0
  0
XRECORD
  5
3CB
102
{ACAD_REACTORS
330
3B5
102
}
330
3B5
100
AcDbXrecord
340
0
  0
XRECORD
  5
3CC
102
{ACAD_REACTORS
330
3B5
102
}
330
3B5
100
AcDbXrecord
 70
     0
  0
XRECORD
  5
3C0
102
{ACAD_REACTORS
330
3B5
102
}
330
3B5
100
AcDbXrecord
  1
{FAEB1C32-E019-11D5-929B-00C0DF256EC4}
  0
DICTIONARYVAR
  5
3DE
102
{ACAD_REACTORS
330
3D5
102
}
330
3D5
100
DictionaryVariables
280
     0
  1
1:1
  0
DICTIONARYVAR
  5
3DC
102
{ACAD_REACTORS
330
3D5
102
}
330
3D5
100
DictionaryVariables
280
     0
  1
2
  0
DICTIONARYVAR
  5
3DD
102
{ACAD_REACTORS
330
3D5
102
}
330
3D5
100
DictionaryVariables
280
     0
  1
1
  0
DICTIONARYVAR
  5
3DF
102
{ACAD_REACTORS
330
3D5
102
}
330
3D5
100
DictionaryVariables
280
     0
  1
1
  0
DICTIONARYVAR
  5
3D9
102
{ACAD_REACTORS
330
3D5
102
}
330
3D5
100
DictionaryVariables
280
     0
  1
80.000000
  0
DICTIONARYVAR
  5
3D8
102
{ACAD_REACTORS
330
3D5
102
}
330
3D5
100
DictionaryVariables
280
     0
  1
5.000000
  0
DICTIONARY
  5
3E2
330
45
100
AcDbDictionary
280
     1
  3
ACAD_XREC_ROUNDTRIP
360
3E3
  0
DICTIONARY
  5
3E0
330
44
100
AcDbDictionary
280
     1
  3
ACAD_XREC_ROUNDTRIP
360
3E1
  0
DICTIONARY
  5
3E4
330
46
100
AcDbDictionary
280
     1
  3
ACAD_XREC_ROUNDTRIP
360
3E5
  0
XRECORD
  5
3E3
102
{ACAD_REACTORS
330
3E2
102
}
330
3E2
100
AcDbXrecord
102
MATERIAL
148
0.0
149
0.0
149
0.0
 93
        0
 94
      127
282
     0
 72
     1
 77
     1
171
     1
175
     1
179
     1
273
     0
  0
XRECORD
  5
3E1
102
{ACAD_REACTORS
330
3E0
102
}
330
3E0
100
AcDbXrecord
102
MATERIAL
148
0.0
149
0.0
149
0.0
 93
        0
 94
      127
282
     0
 72
     1
 77
     1
171
     1
175
     1
179
     1
273
     0
  0
XRECORD
  5
3E5
102
{ACAD_REACTORS
330
3E4
102
}
330
3E4
100
AcDbXrecord
102
MATERIAL
148
0.0
149
0.0
149
0.0
 93
        0
 94
      127
282
     0
 72
     1
 77
     1
171
     1
175
     1
179
     1
273
     0
  0
ENDSEC
  0
EOF
